Results 1 to 1 of 1
  1. #1
    Junior Member
    Join Date
    Sep 2010
    Posts
    9

    T

    Default WWE.Breaking.The.Code.Behind.The.Walls.of.Chris.Je richo.DVDRip.XviD-GR

    Follow us on Social Media







    WWE.Breaking.The.Code.Behind.The.Walls.of.Chris.Jericho.DVDRip.XviD-GR



    Code:
    Format                           : AVI
    Format/Info                      : Audio Video Interleave
    File size                        : 705 MiB
    Duration                         : 1h 13mn
    Overall bit rate                 : 1 342 Kbps
    
    Video
    ID                               : 0
    Format                           : MPEG-4 Visual
    Format profile                   : [email protected]
    Format settings, BVOP            : No
    Format settings, QPel            : No
    Format settings, GMC             : No warppoints
    Format settings, Matrix          : Default (H.263)
    Codec ID                         : XVID
    Codec ID/Hint                    : XviD
    Duration                         : 1h 13mn
    Bit rate                         : 1 200 Kbps
    Width                            : 720 pixels
    Height                           : 480 pixels
    Display aspect ratio             : 3:2
    Frame rate                       : 29.970 fps
    Standard                         : NTSC
    Color space                      : YUV
    Chroma subsampling               : 4:2:0
    Bit depth                        : 8 bits
    Scan type                        : Progressive
    Bits/(Pixel*Frame)               : 0.116
    Stream size                      : 630 MiB (89%)
    Writing library                  : XviD 1.1.0 Beta2 (UTC 2005-04-04)
    
    Audio
    ID                               : 1
    Format                           : MPEG Audio
    Format version                   : Version 1
    Format profile                   : Layer 3
    Mode                             : Joint stereo
    Mode extension                   : MS Stereo
    Codec ID                         : 55
    Codec ID/Hint                    : MP3
    Duration                         : 1h 13mn
    Bit rate mode                    : Constant
    Bit rate                         : 128 Kbps
    Channel(s)                       : 2 channels
    Sampling rate                    : 48.0 KHz
    Stream size                      : 67.2 MiB (10%)
    Alignment                        : Aligned on interleaves
    Interleave, duration             : 24 ms (0.72 video frame)
    Writing library                  : LAME3.96.1

 

 

Posting Permissions

  • You may not post new threads
  • You may not post replies
  • You may not post attachments
  • You may not edit your posts
  •