Results 1 to 1 of 1
  1. #1

    Default WWE Superstars (8/11/2011) HQ-ETWD One Link

    Follow us on Social Media







    WWE Superstars (8/11/2011) HQ-ETWD One Link

    This file was not capped / created by the uploader. Full credit and all of your thanks should go to that person. If this is your file, thank you

    Code:
    WWE.Superstar.August 1. 2011HQ-ETWD.flv
    Format                           : Flash Video
    File size                        : 299 MiB
    Duration                         : 45mn 0s
    Overall bit rate                 : 929 Kbps
    httphostheader                   : o-o.preferred.lga15s18.v8.lscache2.c.youtube.com
    
    Video
    Format                           : AVC
    Format/Info                      : Advanced Video Codec
    Format profile                   : [email protected]
    Format settings, CABAC           : Yes
    Format settings, ReFrames        : 3 frames
    Format settings, GOP             : M=1, N=60
    Codec ID                         : 7
    Duration                         : 45mn 0s
    Bit rate                         : 792 Kbps
    Width                            : 640 pixels
    Height                           : 360 pixels
    Display aspect ratio             : 16:9
    Frame rate mode                  : Constant
    Frame rate                       : 29.970 fps
    Color space                      : YUV
    Chroma subsampling               : 4:2:0
    Bit depth                        : 8 bits
    Scan type                        : Progressive
    Bits/(Pixel*Frame)               : 0.115
    Stream size                      : 255 MiB (85%)
    
    Audio
    Format                           : AAC
    Format/Info                      : Advanced Audio Codec
    Format profile                   : LC
    Codec ID                         : 10
    Duration                         : 45mn 0s
    Bit rate                         : 129 Kbps
    Channel(s)                       : 2 channels
    Channel positions                : Front: L R
    Sampling rate                    : 44.1 KHz
    Compression mode                 : Lossy
    Stream size                      : 41.4 MiB (14%)

    Code:
    http://www.wupload.com/file/92499304
    
    http://www.fileserve.com/file/rX69CnE
    
    http://depositfiles.com/files/c0f7kdr6v
    
    http://www.megaupload.com/?d=76L0RNSY
    
    http://x7.to/sjp4ko
    
    http://www.filesonic.com/file/1652877811
    
    http://turbobit.net/kcm274mxbc1p.html
    
    http://letitbit.net/download/55035.5f797805829f8e309959bdb448d8/WWE.Superstar.August_1._2011HQ-ETWD.flv.html
    
    http://bitshare.com/files/bmd99syb/WWE.Superstar.August-1.-2011HQ-ETWD.flv.html
    
    https://rapidshare.com/files/2913631430/WWE.Superstar.August_1._2011HQ-ETWD.flv
    
    http://netload.in/dateiUBACs16VoH/WWE.Superstar.August 1. 2011HQ-ETWD.flv.htm
    
    http://x7.to/lg9r2n

 

 

Posting Permissions

  • You may not post new threads
  • You may not post replies
  • You may not post attachments
  • You may not edit your posts
  •