Results 1 to 1 of 1
  1. #1
    Super Member www.desirulez.net
    Join Date
    Jun 2011
    Posts
    166

    T

    Default WWE Superstars / 2011.07.21 / Webrip-S4A.mp4 [720p]

    Follow us on Social Media











    Code:
    ---------------------------------------------------------------------------------
    
                        WWE.Superstars.2011.07.21.Webrip.720p-S4A                    
    
    ---------------------------------------------------------------------------------
    
    General
    Complete name                    : WWE.Superstars.2011.07.21.Webrip.720p-S4A.mp4
    Format                           : MPEG-4
    Format profile                   : Base Media / Version 2
    Codec ID                         : mp42
    File size                        : 1.05 GiB
    Duration                         : 48mn 3s
    Overall bit rate                 : 3 132 Kbps
    Encoded date                     : UTC 2011-07-21 03:23:03
    Tagged date                      : UTC 2011-07-21 03:23:03
    
    Video
    ID                               : 1
    Format                           : AVC
    Format/Info                      : Advanced Video Codec
    Format profile                   : [email protected]
    Format settings, CABAC           : Yes
    Format settings, ReFrames        : 1 frame
    Format settings, GOP             : M=1, N=60
    Codec ID                         : avc1
    Codec ID/Info                    : Advanced Video Coding
    Duration                         : 48mn 3s
    Bit rate                         : 2 974 Kbps
    Maximum bit rate                 : 10.6 Mbps
    Width                            : 1 280 pixels
    Height                           : 720 pixels
    Display aspect ratio             : 16:9
    Frame rate mode                  : Variable
    Frame rate                       : 29.970 fps
    Minimum frame rate               : 29.412 fps
    Maximum frame rate               : 200.000 fps
    Color space                      : YUV
    Chroma subsampling               : 4:2:0
    Bit depth                        : 8 bits
    Scan type                        : Progressive
    Bits/(Pixel*Frame)               : 0.108
    Stream size                      : 1 023 MiB (95%)
    Tagged date                      : UTC 2011-07-21 03:25:24
    
    Audio
    ID                               : 2
    Format                           : AAC
    Format/Info                      : Advanced Audio Codec
    Format profile                   : LC
    Codec ID                         : 40
    Duration                         : 48mn 3s
    Bit rate mode                    : Variable
    Bit rate                         : 152 Kbps
    Maximum bit rate                 : 219 Kbps
    Channel(s)                       : 2 channels
    Channel positions                : Front: L R
    Sampling rate                    : 44.1 KHz
    Compression mode                 : Lossy
    Stream size                      : 52.2 MiB (5%)
    Title                            : IsoMedia File Produced by Google, 5-11-2011
    Encoded date                     : UTC 2011-07-21 03:23:59
    Tagged date                      : UTC 2011-07-21 03:25:24


    Code:
    http://www.wupload.com/file/64150916/WWE.Superstars.2011.07.21.Webrip.720p-S4A.mp4


    Code:
    http://www.filesonic.com/file/1502093441/WWE.Superstars.2011.07.21.Webrip.720p-S4A.mp4


    Code:
    http://www.fileserve.com/file/K9U4ZMK/WWE.Superstars.2011.07.21.Webrip.720p-S4A.mp4


    ------------------------------------------------------


    Another Versions :

    WWE Superstars / 2011.07.21 / Webrip-S4A.mp4

    WWE Superstars / 2011.07.21 / HDTV XviD-ss.avi

 

 

Posting Permissions

  • You may not post new threads
  • You may not post replies
  • You may not post attachments
  • You may not edit your posts
  •