Results 1 to 1 of 1
  1. #1
    Super Member www.desirulez.net
    Join Date
    Jun 2011
    Posts
    166

    T

    Default WWE Superstars / 2011.07.21 Webrip-S4A.mp4

    Follow us on Social Media

















    Code:
    General
    Complete name                    : WWE.Superstars.2011.07.21.Webrip-S4A.mp4
    Format                           : MPEG-4
    Format profile                   : Base Media
    Codec ID                         : isom
    File size                        : 466 MiB
    Duration                         : 48mn 3s
    Overall bit rate                 : 1 356 Kbps
    Writing application              : Lavf52.91.0
    
    Video
    ID                               : 1
    Format                           : MPEG-4 Visual
    Format profile                   : [email protected]
    Format settings, BVOP            : No
    Format settings, QPel            : No
    Format settings, GMC             : No warppoints
    Format settings, Matrix          : Default (H.263)
    Codec ID                         : 20
    Duration                         : 48mn 3s
    Bit rate                         : 1 199 Kbps
    Width                            : 640 pixels
    Height                           : 360 pixels
    Display aspect ratio             : 16:9
    Frame rate mode                  : Constant
    Frame rate                       : 29.970 fps
    Color space                      : YUV
    Chroma subsampling               : 4:2:0
    Bit depth                        : 8 bits
    Scan type                        : Progressive
    Compression mode                 : Lossy
    Bits/(Pixel*Frame)               : 0.174
    Stream size                      : 412 MiB (88%)
    Writing library                  : Lavc52.101.0
    
    Audio
    ID                               : 2
    Format                           : AAC
    Format/Info                      : Advanced Audio Codec
    Format profile                   : LC
    Codec ID                         : 40
    Duration                         : 48mn 3s
    Bit rate mode                    : Variable
    Bit rate                         : 152 Kbps
    Channel(s)                       : 2 channels
    Channel positions                : Front: L R
    Sampling rate                    : 44.1 KHz
    Compression mode                 : Lossy
    Stream size                      : 52.2 MiB (11%)


    Code:
    http://www.wupload.com/file/64141746/WWE.Superstars.2011.07.21.Webrip-S4A.mp4


    Code:
    http://www.filesonic.com/file/1501862021/WWE.Superstars.2011.07.21.Webrip-S4A.mp4


    Code:
    http://www.fileserve.com/file/EvJSV9M/WWE.Superstars.2011.07.21.Webrip-S4A.mp4


    ------------------------------------------------------


    Another Versions :

    WWE Superstars / 2011.07.21 / HDTV XviD-ss.avi

 

 

Posting Permissions

  • You may not post new threads
  • You may not post replies
  • You may not post attachments
  • You may not edit your posts
  •