Results 1 to 1 of 1
  1. #1
    dR Contributor www.desirulez.net
    Join Date
    Jan 2011
    Posts
    220

    T

    Thumbs up WWE Smackdown 2011.03.25 HDTV x264-RUDOS

    Follow us on Social Media









    Video
    ID : 1
    Format : AVC
    Format/Info : Advanced Video Codec
    Format profile : [email protected]
    Format settings, CABAC : Yes
    Format settings, ReFrames : 4 frames
    Codec ID : avc1
    Codec ID/Info : Advanced Video Coding
    Duration : 1h 17mn
    Bit rate mode : Variable
    Bit rate : 1 403 Kbps
    Maximum bit rate : 2 462 Kbps
    Width : 704 pixels
    Height : 400 pixels
    Display aspect ratio : 16:9
    Frame rate mode : Constant
    Frame rate : 25.000 fps
    Color space : YUV
    Chroma subsampling : 4:2:0
    Bit depth : 8 bits
    Scan type : Progressive
    Bits/(Pixel*Frame) : 0.199
    Stream size : 774 MiB (88%)
    Writing library : x264 core 88 r1471 1144615


    Audio
    ID : 2
    Format : AAC
    Format/Info : Advanced Audio Codec
    Format version : Version 4
    Format profile : LC
    Format settings, SBR : No
    Codec ID : 40
    Duration : 1h 17mn
    Bit rate mode : Variable
    Bit rate : 192 Kbps
    Maximum bit rate : 204 Kbps
    Channel(s) : 2 channels
    Channel positions : Front: L R
    Sampling rate : 48.0 KHz
    Stream size : 105 MiB (12%)
    Encoded date : UTC 2011-03-24 08:57:16
    Tagged date : UTC 2011-03-24 08:57:49



    Download Links:-


    Code:
    http://www.fileserve.com/file/4czNzXv/WWE.Smackdown.2011.03.25.HDTV.x264-RUDOS.mp4
    Code:
    http://www.filesonic.com/file/357984971/WWE.Smackdown.2011.03.25.HDTV.x264-RUDOS.mp4

 

 

Posting Permissions

  • You may not post new threads
  • You may not post replies
  • You may not post attachments
  • You may not edit your posts
  •