Results 1 to 1 of 1
  1. #1
    Banned www.desirulez.net
    Join Date
    Jan 2012
    Posts
    167

    T

    Default WWE.Friday.Night.Smackdown.2012.02.03.HDTV.XviD-vasylius

    Follow us on Social Media







    WWE.Friday.Night.Smackdown.2012.02.03.HDTV.XviD-vasylius






    Code:
    General   
     Complete name                            : D:\WWE.Friday.Night.Smackdown.2012.02.03.HDTV.XviD-vasylius.avi   
     Format                                   : AVI   
     Format/Info                              : Audio Video Interleave   
     File size                                : 832 MiB   
     Duration                                 : 1h 27mn   
     Overall bit rate                         : 1 336 Kbps   
        
     Video   
     ID                                       : 0   
     Format                                   : MPEG-4 Visual   
     Format profile                           : Advanced [email protected]   
     Format settings, BVOP                    : 2   
     Format settings, QPel                    : No   
     Format settings, GMC                     : No warppoints   
     Format settings, Matrix                  : Default (H.263)   
     Muxing mode                              : Packed bitstream   
     Codec ID                                 : XVID   
     Codec ID/Hint                            : XviD   
     Duration                                 : 1h 27mn   
     Bit rate                                 : 1 199 Kbps   
     Width                                    : 624 pixels   
     Height                                   : 352 pixels   
     Display aspect ratio                     : 16:9   
     Frame rate                               : 25.000 fps   
     Color space                              : YUV   
     Chroma subsampling                       : 4:2:0   
     Bit depth                                : 8 bits   
     Scan type                                : Progressive   
     Compression mode                         : Lossy   
     Bits/(Pixel*Frame)                       : 0.218   
     Stream size                              : 747 MiB (90%)   
     Writing library                          : XviD 1.2.1 (UTC 2008-12-04)   
        
     Audio   
     ID                                       : 1   
     Format                                   : AC-3   
     Format/Info                              : Audio Coding 3   
     Mode extension                           : CM (complete main)   
     Codec ID                                 : 2000   
     Duration                                 : 1h 27mn   
     Bit rate mode                            : Constant   
     Bit rate                                 : 128 Kbps   
     Channel(s)                               : 2 channels   
     Channel positions                        : Front: L R   
     Sampling rate                            : 48.0 KHz   
     Bit depth                                : 16 bits   
     Compression mode                         : Lossy   
     Stream size                              : 79.7 MiB (10%)   
     Alignment                                : Aligned on interleaves   
     Interleave, duration                     : 40 ms (1.00 video frame)






    IF You Face Problem when You OpenThe Download Page
    Please Refresh The Page again >>> Thanks

    (Resume Supported for Free Users)
    Code:
    http://grupload.com/yuyfx6cn4ypo/WWE.Friday.Night.Smackdown.2012.02.03.HDTV.XviD-vasylius.avi.html

    DepostitFiles
    Resume Supported for Free Users
    Code:
    http://depositfiles.com/files/et7gf7bhb

    Last edited by WWE_86; 02-04-2012 at 12:35 AM.

 

 

Posting Permissions

  • You may not post new threads
  • You may not post replies
  • You may not post attachments
  • You may not edit your posts
  •