Results 1 to 1 of 1
  1. #1
    dR Contributor www.desirulez.net
    Join Date
    Jun 2010
    Posts
    2,470

    T

    Cool WWE.Friday.Night.Smackdown.2012.01.20.HDTV.XviD-vasylius

    Follow us on Social Media







    WWE.Friday.Night.Smackdown.2012.01.20.HDTV.XviD-vasylius

    WWE.Friday.Night.Smackdown.2012.01.20.HDTV.XviD-vasylius


    Code:
    General 
    Complete name                    : D:\WWE.Friday.Night.Smackdown.2012.01.20.HDTV.XviD-vasylius.avi 
    Format                          : AVI 
    Format/Info                      : Audio Video Interleave 
    File size                        : 729 MiB 
    Duration                        : 1h 16mn 
    Overall bit rate                : 1 335 Kbps 
    
    Video 
    ID                              : 0 
    Format                          : MPEG-4 Visual 
    Format profile                  : Advanced [email protected] 
    Format settings, BVOP            : 2 
    Format settings, QPel            : No 
    Format settings, GMC            : No warppoints 
    Format settings, Matrix          : Default (H.263) 
    Muxing mode                      : Packed bitstream 
    Codec ID                        : XVID 
    Codec ID/Hint                    : XviD 
    Duration                        : 1h 16mn 
    Bit rate                        : 1 198 Kbps 
    Width                            : 624 pixels 
    Height                          : 352 pixels 
    Display aspect ratio            : 16:9 
    Frame rate                      : 25.000 fps 
    Color space                      : YUV 
    Chroma subsampling              : 4:2:0 
    Bit depth                        : 8 bits 
    Scan type                        : Progressive 
    Compression mode                : Lossy 
    Bits/(Pixel*Frame)              : 0.218 
    Stream size                      : 653 MiB (90%) 
    Writing library                  : XviD 1.2.1 (UTC 2008-12-04) 
    
    Audio 
    ID                              : 1 
    Format                          : AC-3 
    Format/Info                      : Audio Coding 3 
    Mode extension                  : CM (complete main) 
    Codec ID                        : 2000 
    Duration                        : 1h 16mn 
    Bit rate mode                    : Constant 
    Bit rate                        : 128 Kbps 
    Channel(s)                      : 2 channels 
    Channel positions                : Front: L R 
    Sampling rate                    : 48.0 KHz 
    Bit depth                        : 16 bits 
    Compression mode                : Lossy 
    Stream size                      : 69.8 MiB (10%) 
    Alignment                        : Aligned on interleaves 
    Interleave, duration            : 40 ms (1.00 video frame)





    Code:
    http://www.putlocker.com/file/640A62FE1DBDB897
    
    http://www.filesonic.com/file/nuverVg/WWE.Friday.Night.Smackdown.2012.01.20.HDTV.XviD-vasylius.avi
    
    http://www.fileserve.com/file/bsAshmz/WWE.Friday.Night.Smackdown.2012.01.20.HDTV.XviD-vasylius.avi
    
    http://ul.to/a7cswj4n
    
    http://rapidshare.com/files/526717735/WWE.Friday.Night.Smackdown.2012.01.20.HDTV.XviD-vasylius.avi
    
    http://demo.ovh.net/en/bb072f85ecf6401fc5a893fb8e5bad0d/
    
    http://www.novamov.com/video/5lkndbhi5caa4
    Last edited by Ash; 01-20-2012 at 05:20 PM.

 

 

Posting Permissions

  • You may not post new threads
  • You may not post replies
  • You may not post attachments
  • You may not edit your posts
  •