Results 1 to 1 of 1
  1. #1
    Senior Member www.desirulez.net
    Join Date
    Dec 2010
    Posts
    104

    T

    Default [FS,NL] WWE.Friday.Night.Smackdown.2011.06.10.PDTV.x264.20 0MB-SiMmER

    Follow us on Social Media














    Code:
    Format                           : Matroska
    File size                        : 196 MiB
    Duration                         : 55mn 9s
    Overall bit rate                 : 497 Kbps
    Encoded date                     : UTC 2011-06-10 18:02:36
    Writing application              : mkvmerge v4.7.0 ('Just Like You Imagined') built on Apr 21 2011 01:13:14
    Writing library                  : libebml v1.2.0 + libmatroska v1.1.0
    
    Video
    ID                               : 2
    Format                           : AVC
    Format/Info                      : Advanced Video Codec
    Format profile                   : [email protected]
    Format settings, CABAC           : Yes
    Format settings, ReFrames        : 4 frames
    Muxing mode                      : Header stripping
    Codec ID                         : V_MPEG4/ISO/AVC
    Duration                         : 55mn 9s
    Bit rate                         : 392 Kbps
    Width                            : 624 pixels
    Height                           : 320 pixels
    Display aspect ratio             : 1.950
    Frame rate                       : 25.000 fps
    Original frame rate              : 29.970 fps
    Color space                      : YUV
    Chroma subsampling               : 4:2:0
    Bit depth                        : 8 bits
    Scan type                        : Progressive
    Bits/(Pixel*Frame)               : 0.078
    Stream size                      : 154 MiB (79%)
    
    Audio
    ID                               : 1
    Format                           : MPEG Audio
    Format version                   : Version 1
    Format profile                   : Layer 3
    Muxing mode                      : Header stripping
    Codec ID                         : A_MPEG/L3
    Codec ID/Hint                    : MP3
    Duration                         : 55mn 9s
    Bit rate mode                    : Constant
    Bit rate                         : 96.0 Kbps
    Channel(s)                       : 2 channels
    Sampling rate                    : 44.1 KHz
    Compression mode                 : Lossy
    Stream size                      : 37.9 MiB (19%)
    Source : WWE.Friday.Night.Smackdown.International.2011.06.1 0.PDTV.XviD-Ebi

    DoWnLoAd

    &

    Enjoy~

    Fileserve

    Code:
    http://www.fileserve.com/file/8BYzV2N/WWE.Friday.Night.Smackdown.2011.06.10.PDTV.x264.200MB-SiMmER.mkv
    Netload

    Code:
    http://netload.in/dateikIG7cPQf3s/WWE.Friday.Night.Smackdown.2011.06.10.PDTV.x264.200MB-SiMmER.mkv.htm
    if people will start reuploading my release then next time there will be watermarks on the video of my site to let people know where to download this from so don't dare to reupload this takes time and lots of effort !
    Last edited by simmer; 06-10-2011 at 11:24 PM.

 

 

Posting Permissions

  • You may not post new threads
  • You may not post replies
  • You may not post attachments
  • You may not edit your posts
  •