Results 1 to 1 of 1
  1. #1
    shawn rebecca
    Guest

    Default WWE.Raw.05.09.2011.HDTV.XviD-XS

    Follow us on Social Media







    WWE.Raw.05.09.2011.HDTV.XviD-XS


    General Information
    Complete name : WWE.Raw.05.09.2011.HDTV.XviD-XS.avi
    Format : AVI
    Format/Info : Audio Video Interleave
    File size : 882 MiB
    Duration : 1h 34mn
    Overall bit rate : 1 307 Kbps
    Writing application : Lavf51.12.1
    Video
    ID : 0
    Format : MPEG-4 Visual
    Format profile : [email protected]
    Format settings, BVOP : No
    Format settings, QPel : No
    Format settings, GMC : No warppoints
    Format settings, Matrix : Default (H.263)
    Codec ID : DX50
    Codec ID/Hint : DivX 5
    Duration : 1h 34mn
    Bit rate : 1 166 Kbps
    Width : 624 pixels
    Height : 352 pixels
    Display aspect ratio : 16:9
    Frame rate : 29.970 fps
    Color space : YUV
    Chroma subsampling : 4:2:0
    Bit depth : 8 bits
    Scan type : Progressive
    Bits/(Pixel*Frame) : 0.177
    Stream size : 787 MiB (89%)
    Writing library : Lavc51.40.4
    Audio
    ID : 1
    Format : MPEG Audio
    Format version : Version 1
    Format profile : Layer 3
    Mode : Joint stereo
    Mode extension : MS Stereo
    Codec ID : 55
    Codec ID/Hint : MP3
    Duration : 1h 34mn
    Bit rate mode : Constant
    Bit rate : 128 Kbps
    Channel(s) : 2 channels
    Sampling rate : 48.0 KHz
    Stream size : 86.4 MiB (10%)

    ONE LInks

    Code:
    http://www.fileserve.com/file/rFeVeSW/WWE.Raw.05.09.2011.HDTV.XviD-XS.avi
    Code:
    http://www.filesonic.com/file/958305434/WWE.Raw.05.09.2011.HDTV.XviD-XS.avi

 

 

Posting Permissions

  • You may not post new threads
  • You may not post replies
  • You may not post attachments
  • You may not edit your posts
  •