Results 1 to 2 of 2
  1. #1
    Banned www.desirulez.net
    Join Date
    Oct 2010
    Posts
    2,885

    T

    Default WWE.Raw.05.09.2011.HDTV.XviD-XS

    Follow us on Social Media







    WWE.Raw.05.09.2011.HDTV.XviD-XS



    General Information
    Complete name : WWE.Raw.05.09.2011.HDTV.XviD-XS.avi
    Format : AVI
    Format/Info : Audio Video Interleave
    File size : 882 MiB
    Duration : 1h 34mn
    Overall bit rate : 1 307 Kbps
    Writing application : Lavf51.12.1
    Video
    ID : 0
    Format : MPEG-4 Visual
    Format profile : [email protected]
    Format settings, BVOP : No
    Format settings, QPel : No
    Format settings, GMC : No warppoints
    Format settings, Matrix : Default (H.263)
    Codec ID : DX50
    Codec ID/Hint : DivX 5
    Duration : 1h 34mn
    Bit rate : 1 166 Kbps
    Width : 624 pixels
    Height : 352 pixels
    Display aspect ratio : 16:9
    Frame rate : 29.970 fps
    Color space : YUV
    Chroma subsampling : 4:2:0
    Bit depth : 8 bits
    Scan type : Progressive
    Bits/(Pixel*Frame) : 0.177
    Stream size : 787 MiB (89%)
    Writing library : Lavc51.40.4
    Audio
    ID : 1
    Format : MPEG Audio
    Format version : Version 1
    Format profile : Layer 3
    Mode : Joint stereo
    Mode extension : MS Stereo
    Codec ID : 55
    Codec ID/Hint : MP3
    Duration : 1h 34mn
    Bit rate mode : Constant
    Bit rate : 128 Kbps
    Channel(s) : 2 channels
    Sampling rate : 48.0 KHz
    Stream size : 86.4 MiB (10%)
    Alignment : Aligned on interleaves
    Interleave, duration : 24 ms (0.72 video frame)
    UPSTATION
    Code:
    http://www.uploadstation.com/file/A97upAf/WWE.Raw.05.09.2011.HDTV.XviD-XS.part1.rar
    http://www.uploadstation.com/file/gD6kxpG/WWE.Raw.05.09.2011.HDTV.XviD-XS.part2.rar
    http://www.uploadstation.com/file/Vyph7P4/WWE.Raw.05.09.2011.HDTV.XviD-XS.part3.rar
    http://www.uploadstation.com/file/NuRqZDE/WWE.Raw.05.09.2011.HDTV.XviD-XS.part4.rar
    http://www.uploadstation.com/file/CmpQ4Xm/WWE.Raw.05.09.2011.HDTV.XviD-XS.part5.rar
    FILESERVE
    Code:
    http://www.fileserve.com/file/bekuxnw
    http://www.fileserve.com/file/gkK56WX
    http://www.fileserve.com/file/3vDxmjw
    http://www.fileserve.com/file/3P4ePqz
    http://www.fileserve.com/file/RXvyVm8
    1 LINK DOWNLOADS


    FILESERVE
    Code:
    http://www.fileserve.com/file/QHy8tKE/WWE.Raw.05.09.2011.HDTV.XviD-XS.avi
    FILESONIC
    Code:
    http://www.filesonic.com/file/958074194
    BITSHARE
    Code:
    http://bitshare.com/files/s70s2gum/WWE.Raw.05.09.2011.HDTV.XviD-XS.avi.html

  2. #2
    RIP-Mate, You ll be Remembered:) www.desirulez.netwww.desirulez.net
    Join Date
    Feb 2011
    Posts
    1,613

    T

    Default

    Great Work........................

 

 

Posting Permissions

  • You may not post new threads
  • You may not post replies
  • You may not post attachments
  • You may not edit your posts
  •