Results 1 to 1 of 1
  1. #1
    dR Dazzler www.desirulez.net
    Join Date
    Mar 2009
    Posts
    1,518

    T

    Default WWE.Raw.05.09.11.x264.400MB.mkv

    Follow us on Social Media







    WWE.Raw.05.09.11.x264.400MB

    4 Hosts | Singles Links or Interchangeable Links | My Upload | No Password | Say Thanks Enjoy





    Code:
     Duration: 01:33:41.20, start: 0.000000, bitrate: N/A
        Stream #0.0: Video: h264, yuv420p, 640x352, PAR 1:1 DAR 20:11, 25 fps, 25 tbr, 1k tbn, 50 tbc
        Stream #0.1(eng): Audio: aac, 48000 Hz, stereo, s16
    At least one output file must be specified



    Links are Interchangeable

    BitShare Links
    Code:
    http://bitshare.com/files/7483u2c8/WWE.Raw.05.09.11.x264.400MB.mkv.html
    Fileserve Links
    Code:
    http://www.fileserve.com/file/PeXBpd5/WWE.Raw.05.09.11.x264.400MB.mkv
    Filesonic Links
    Code:
    http://www.filesonic.com/file/958758764/WWE.Raw.05.09.11.x264.400MB.mkv

 

 

Posting Permissions

  • You may not post new threads
  • You may not post replies
  • You may not post attachments
  • You may not edit your posts
  •