Results 1 to 1 of 1
  1. #1
    Banned www.desirulez.net
    Join Date
    Oct 2010
    Posts
    2,885

    T

    Default WWE.Raw.03.14.2011.720p.HDTV.x264-XS

    Follow us on Social Media







    WWE.Raw.03.14.2011.720p.HDTV.x264-XS



    General Information
    Format : Matroska
    File size : 3.25 GiB
    Duration : 1h 47mn
    Overall bit rate : 4 333 Kbps
    Writing application : Lavf51.12.1
    Writing library : Lavf51.12.1
    Video
    ID : 1
    Format : AVC
    Format/Info : Advanced Video Codec
    Format profile : [email protected]
    Format settings, CABAC : No
    Format settings, ReFrames : 1 frame
    Muxing mode : Container [email protected]
    Codec ID : V_MPEG4/ISO/AVC
    Duration : 1h 47mn
    Bit rate : 4 054 Kbps
    Width : 1 280 pixels
    Height : 720 pixels
    Display aspect ratio : 16:9
    Frame rate : 29.970 fps
    Color space : YUV
    Chroma subsampling : 4:2:0
    Bit depth : 8 bits
    Scan type : Progressive
    Bits/(Pixel*Frame) : 0.147
    Stream size : 3.04 GiB (94%)
    Language : English
    Audio
    ID : 2
    Format : AC-3
    Format/Info : Audio Coding 3
    Mode extension : CM (complete main)
    Codec ID : A_AC3
    Duration : 1h 47mn
    Bit rate mode : Constant
    Bit rate : 192 Kbps
    Channel(s) : 2 channels
    Channel positions : Front: L R
    Sampling rate : 48.0 KHz
    Bit depth : 16 bits
    Stream size : 148 MiB (4%)
    Language : English
    HOTFILE
    Code:
    http://hotfile.com/dl/110293140/7edb855/WWE.Raw.03.14.2011.720p.HDTV.x264-XS.part1.rar.html
    http://hotfile.com/dl/110293138/a2f1c3a/WWE.Raw.03.14.2011.720p.HDTV.x264-XS.part2.rar.html
    http://hotfile.com/dl/110293139/7ce1a08/WWE.Raw.03.14.2011.720p.HDTV.x264-XS.part3.rar.html
    http://hotfile.com/dl/110293141/a449b28/WWE.Raw.03.14.2011.720p.HDTV.x264-XS.part4.rar.html
    http://hotfile.com/dl/110293142/6fd90fc/WWE.Raw.03.14.2011.720p.HDTV.x264-XS.part5.rar.html
    FILESERVE
    Code:
    http://www.fileserve.com/file/htYhB3S/WWE.Raw.03.14.2011.720p.HDTV.x264-XS.part1.rar
    http://www.fileserve.com/file/QCZAHZ5/WWE.Raw.03.14.2011.720p.HDTV.x264-XS.part2.rar
    http://www.fileserve.com/file/SRpaKVu/WWE.Raw.03.14.2011.720p.HDTV.x264-XS.part3.rar
    http://www.fileserve.com/file/rVYmdsD/WWE.Raw.03.14.2011.720p.HDTV.x264-XS.part4.rar
    http://www.fileserve.com/file/a8XEY6D/WWE.Raw.03.14.2011.720p.HDTV.x264-XS.part5.rar
    USERSHARE
    Code:
    http://www.usershare.net/9950x7fzxybz/WWE.Raw.03.14.2011.720p.HDTV.x264-XS.part1.rar
    http://www.usershare.net/4val0futpnt6/WWE.Raw.03.14.2011.720p.HDTV.x264-XS.part2.rar
    http://www.usershare.net/ueswnebnwui0/WWE.Raw.03.14.2011.720p.HDTV.x264-XS.part3.rar
    http://www.usershare.net/r3g9yalq70xt/WWE.Raw.03.14.2011.720p.HDTV.x264-XS.part4.rar

 

 

Posting Permissions

  • You may not post new threads
  • You may not post replies
  • You may not post attachments
  • You may not edit your posts
  •