Results 1 to 2 of 2
  1. #1
    Hot Member www.desirulez.me
    Join Date
    Nov 2011
    Posts
    6,092

    T

    Thumbs up WWE.NXT.12.14.2011.360p.H.264.ACC.MM.snaw90.mp4 / 720p.HDTV.Youtube.HD

    Follow us on Social Media







    WWE.NXT.12.14.2011.360p.H.264.ACC.MM.snaw90.mp4.Youtube.HD





    Code:
    
    General
    Complete name                : WWE.NXT.12.14.2011.360p.H.264.ACC.MM.snaw90.mp4.Youtube.HD
    Format                           : MP4
    File size                          : 348 MiB
    Duration                         : 45mn 46s
    Overall bit rate                 : 1064 Kbps
    
    
    Video
    
    Format                           : AVC
    Duration                         : 45mn 46s
    Bit rate                         : 930 Kbps
    Width                            : 512 pixels
    Height                           : 384 pixels
    Display aspect ratio             : 4:3
    Frame rate                       : 29.970 fps
    Original frame rate              : 29.000 fps
    Stream size                      : 304 MiB 
    Language                         : English
    
    Audio
    
    Format                           : ACC
    Format profile                   : LC
    Duration                         : 45mn 46s
    Bit rate                         : 128 Kbps
    Channel(s)                       : 2 channels
    Stream size                      : 41.9 MiB
    Language                         : English
    
    
    
    
    link:
    Code:
    
    
    
    http://ul.to/u0pbo2oz
    
    http://www.filesonic.com/file/4234486375
    
    http://www.filedino.com/kc6zq4lyiyue
    
    
    
    
    Last edited by snaw90; 12-15-2011 at 07:07 PM.

  2. #2
    Hot Member www.desirulez.me
    Join Date
    Nov 2011
    Posts
    6,092

    T

    Default

    WWE.NXT.720p.HDTV.x264.MM.snaw90.YouTube.HD.mp4





    Code:
    
    General
    Complete name               :WWE.NXT.720p.HDTV.x264.MM.snaw90.YouTube.HD.mp4
    Format                           : MPEG-4
    Codec ID                         : mp4
    File size                        : 945 MiB
    Duration                         : 43mn 7s
    
    
    
    Video
    
    Format                           : AVC
    Duration                        : 43mn 7s
    Bit rate                         : 2910 Kbps
    Maximum bit rate             : 9057 Kbps
    Width                            : 1280 pixels
    Height                           : 720 pixels
    Display aspect ratio             : 16:9
    Frame rate                       : 29.970 fps
    Stream size                      : 898 MiB
    
    
    Audio
    
    Format                           : AAC
    Format profile                   : LC
    Duration                         : 43mn 7s
    Channel(s)                       : 2 channels
    Stream size                      : 46.9 MiB
    
    
    
    
    
    
    
    link:
    Code:
    
    
    http://ul.to/my04pvqt
    
    http://www.filedino.com/pkah8dlmhtkg
    
    http://www.filesonic.com/file/4234452365
    
    
    

 

 

Posting Permissions

  • You may not post new threads
  • You may not post replies
  • You may not post attachments
  • You may not edit your posts
  •