Results 1 to 1 of 1
  1. #1

    Talking WWE NXT 10 4 2011 MM H264 Snaw90

    Follow us on Social Media







    WWE NXT 10 4 2011 MM H264 Snaw90





    Code:
    General
    Complete name : WWE.NXT.10.4.2011.MM.H.264.Mp4-By.Snaw90.mp4
    Format : MPEG-4
    Format profile : Base Media
    File size : 338 MiB
    Duration : 33mn 48s
    Overall bit rate : 1 398 Kbps
    Writing application : Lavf52.78.3
    
    Video
    Format : AVC
    Duration : 33mn 48s
    Width : 720 pixels
    Height : 576 pixels
    Display aspect ratio : 5:4
    Standard : PAL
    Color space : YUV
    Stream size : 300 MiB (89%)
    Writing library : x264 core 106 r1732 b20059a
    
    Audio
    Format : AAC
    Duration : 33mn 48s
    Bit rate : 152 Kbps
    Channel(s) : 2 channels
    Sampling rate : 44.1 KHz
    Stream size : 36.7 MiB

    [code]
    WUPLOAD
    http://www.wupload.com/file/318678034/WWE.NXT.10.4.2011.MM.H.264.Mp4-By.Snaw90.mp4

    FILEJUNGLE
    http://www.filejungle.com/f/Ukgn9U/WWE.NXT.10.4.2011.MM.H.264.Mp4-By.Snaw90.mp4


    FILESONIC
    http://www.filesonic.com/file/2358348471/WWE.NXT.10.4.2011.MM.H.264.Mp4-By.Snaw90.mp4

    FILESERVE
    http://www.fileserve.com/file/Cxvq35G/WWE.NXT.10.4.2011.MM.H.264.Mp4-By.Snaw90.mp4



 

 

Posting Permissions

  • You may not post new threads
  • You may not post replies
  • You may not post attachments
  • You may not edit your posts
  •