Results 1 to 4 of 4
  1. #1
    shawn rebecca
    Guest

    Default Wwe nxt 07 12 2011 hq DesiRulez

    Follow us on Social Media







    WWE NXT 07 12 2011 HQ DesiRulez


    Format : AVI
    Format/Info : Audio Video Interleave
    File size : 407 MiB
    Duration : 39mn 40s
    Overall bit rate : 1 433 Kbps
    Writing application : Lavf52.61.0

    Video
    ID : 0
    Format : MPEG-4 Visual
    Format profile : [email protected]
    Format settings, BVOP : No
    Format settings, QPel : No
    Format settings, GMC : No warppoints
    Format settings, Matrix : Default (H.263)
    Codec ID : XVID
    Codec ID/Hint : XviD
    Duration : 39mn 40s
    Bit rate : 1 292 Kbps
    Width : 1 280 pixels
    Height : 960 pixels
    Display aspect ratio : 4:3
    Frame rate : 29.970 fps
    Color space : YUV
    Chroma subsampling : 4:2:0
    Bit depth : 8 bits
    Scan type : Progressive
    Compression mode : Lossy
    Bits/(Pixel*Frame) : 0.035
    Stream size : 367 MiB (90%)
    Writing library : XviD 1.2.1 (UTC 2008-12-04)

    Audio
    ID : 1
    Format : MPEG Audio
    Format version : Version 1
    Format profile : Layer 3
    Mode : Joint stereo
    Mode extension : MS Stereo
    Codec ID : 55
    Codec ID/Hint : MP3
    Duration : 39mn 40s
    Bit rate mode : Constant
    Bit rate : 128 Kbps
    Channel(s) : 2 channels
    Sampling rate : 44.1 KHz
    Compression mode : Lossy
    Stream size : 36.3 MiB (9%)
    Alignment : Aligned on interleaves
    Interleave, duration : 26 ms (0.78 video frame)
    Interleave, preload duration : 52 ms
    Code:
    http://www.filesonic.com/file/1430456754/WWE NXT 07 12 2011 -HD.avi
    Code:
    http://www.fileserve.com/file/8yXBdnK/WWE NXT 07 12 2011 -HD.avi
    Last edited by shawn rebecca; 07-13-2011 at 01:31 PM.

  2. #2
    The Creator :) www.desirulez.org
    Join Date
    Mar 2008
    Posts
    11,198

    T

    Default

    lol atleast give me a credit?






  3. #3
    shawn rebecca
    Guest

    Default

    Oopps this time i lost my Mind Added

  4. #4
    Banned www.desirulez.net
    Join Date
    Mar 2011
    Posts
    61

    T

    Default

    Thank You Good JOB

 

 

Posting Permissions

  • You may not post new threads
  • You may not post replies
  • You may not post attachments
  • You may not edit your posts
  •