Results 1 to 1 of 1
  1. #1
    Super Member www.desirulez.net
    Join Date
    Mar 2011
    Posts
    171

    T

    Red face WWE Wrestlemania 27 PPV HDTV 720p x264 MKV AVC-FWG

    Follow us on Social Media







    WWE Wrestlemania 27 PPV HDTV 720p x264 MKV AVC-FWG





    Code:
    ***FWG Presents***
    
    ***WWE.Wrestlemania.27.PPV.HDTV.720p.x264.MKV.AVC-FWG***
    
    ***Date***
    April 3rd, 2011
    
    ***Location***
    Georgia Dome - Atlanta, Georgia
    
    "The Biggest WrestleMania Ever"
    
    ***Matches***
    1. Edge (c)     vs. Alberto Del Rio - Singles match for the World Heavyweight Championship
    
    2. The Miz (c)  vs. John Cena    - Singles match for the WWE Championship
    
    3. Triple H     vs. The Undertaker  - No Holds Barred match
    
    4. Jerry Lawler vs. Michael Cole    - Singles match with special guest referee Steve Austin
    
    5. Randy Orton  vs. CM Punk    - Singles match
    
    6. Rey Mysterio vs. Cody Rhodes     - Singles match
    
    7. Snooki, Trish Stratus and John Morrison vs. Dolph Ziggler and LayCool - 6 person mixed tag team match
    
    8. Kane, Big Show, Santino Marella, and Kofi Kingston vs. The Corre - 8 man tag team match
    
    (c) ? refers to the champion(s) heading into the match
    
    
    ***File Info***
    Source: 1080i High Definition capture from SBO HD2 at 13MB/s, compressed to 720p HDTV.
    
    Video
    ID                               : 2
    Format                           : AVC
    Format/Info                      : Advanced Video Codec
    Format profile                   : [email protected]
    Format settings, CABAC           : Yes
    Format settings, ReFrames        : 3 frames
    Muxing mode                      : Header stripping
    Codec ID                         : V_MPEG4/ISO/AVC
    Duration                         : 3h 58mn
    Bit rate mode                    : Constant
    Bit rate                         : 3 763 Kbps
    Nominal bit rate                 : 4 000 Kbps / 4 000 Kbps
    Width                            : 1 280 pixels
    Height                           : 720 pixels
    Display aspect ratio             : 16:9
    Frame rate                       : 25.000 fps
    Color space                      : YUV
    Chroma subsampling               : 4:2:0
    Bit depth                        : 8 bits
    Scan type                        : Progressive
    Bits/(Pixel*Frame)               : 0.163
    Stream size                      : 6.26 GiB (89%)
    Writing library                  : x264 core 112
    
    
    Audio
    ID                               : 1
    Format                           : AC-3
    Format/Info                      : Audio Coding 3
    Mode extension                   : CM (complete main)
    Muxing mode                      : Header stripping
    Codec ID                         : A_AC3
    Duration                         : 3h 58mn
    Bit rate mode                    : Constant
    Bit rate                         : 384 Kbps
    Channel(s)                       : 2 channels
    Channel positions                : Front: L R
    Sampling rate                    : 48.0 KHz
    Bit depth                        : 16 bits
    Compression mode                 : Lossy
    Stream size                      : 655 MiB (9%)
    - No CRC
    - 10% Recovery Data Added
    - My Upload
    - 100% Work
    - Single Extraction [2GB Files/rar] or;
    - Single AVI/MKV/... file
    - Fast Server
    - THE BEST QUALITY UPLOAD!!!





    400MB Parts | No CRC | 10% Recovery Data Added | 100% Working



    Code:
    http://www.filesonic.com/file/505701471/WWE.Wrestlemania.27.PPV.HDTV.720p.x264.MKV.AVC-FWG.By.Ravek.part01.rar
    http://www.filesonic.com/file/507609641/WWE.Wrestlemania.27.PPV.HDTV.720p.x264.MKV.AVC-FWG.By.Ravek.part02.rar
    http://www.filesonic.com/file/507617641/WWE.Wrestlemania.27.PPV.HDTV.720p.x264.MKV.AVC-FWG.By.Ravek.part03.rar
    http://www.filesonic.com/file/507583411/WWE.Wrestlemania.27.PPV.HDTV.720p.x264.MKV.AVC-FWG.By.Ravek.part04.rar
    http://www.filesonic.com/file/505739861/WWE.Wrestlemania.27.PPV.HDTV.720p.x264.MKV.AVC-FWG.By.Ravek.part05.rar
    http://www.filesonic.com/file/507627811/WWE.Wrestlemania.27.PPV.HDTV.720p.x264.MKV.AVC-FWG.By.Ravek.part06.rar
    http://www.filesonic.com/file/507646681/WWE.Wrestlemania.27.PPV.HDTV.720p.x264.MKV.AVC-FWG.By.Ravek.part07.rar
    http://www.filesonic.com/file/507563501/WWE.Wrestlemania.27.PPV.HDTV.720p.x264.MKV.AVC-FWG.By.Ravek.part08.rar
    http://www.filesonic.com/file/507651611/WWE.Wrestlemania.27.PPV.HDTV.720p.x264.MKV.AVC-FWG.By.Ravek.part09.rar
    http://www.filesonic.com/file/507542631/WWE.Wrestlemania.27.PPV.HDTV.720p.x264.MKV.AVC-FWG.By.Ravek.part10.rar
    http://www.filesonic.com/file/507655851/WWE.Wrestlemania.27.PPV.HDTV.720p.x264.MKV.AVC-FWG.By.Ravek.part11.rar
    http://www.filesonic.com/file/507658591/WWE.Wrestlemania.27.PPV.HDTV.720p.x264.MKV.AVC-FWG.By.Ravek.part12.rar
    http://www.filesonic.com/file/507660131/WWE.Wrestlemania.27.PPV.HDTV.720p.x264.MKV.AVC-FWG.By.Ravek.part13.rar
    http://www.filesonic.com/file/505755981/WWE.Wrestlemania.27.PPV.HDTV.720p.x264.MKV.AVC-FWG.By.Ravek.part14.rar
    http://www.filesonic.com/file/507665841/WWE.Wrestlemania.27.PPV.HDTV.720p.x264.MKV.AVC-FWG.By.Ravek.part15.rar
    http://www.filesonic.com/file/507695661/WWE.Wrestlemania.27.PPV.HDTV.720p.x264.MKV.AVC-FWG.By.Ravek.part16.rar
    http://www.filesonic.com/file/507697681/WWE.Wrestlemania.27.PPV.HDTV.720p.x264.MKV.AVC-FWG.By.Ravek.part17.rar
    http://www.filesonic.com/file/507509911/WWE.Wrestlemania.27.PPV.HDTV.720p.x264.MKV.AVC-FWG.By.Ravek.part18.rar
    http://www.filesonic.com/file/505757851/WWE.Wrestlemania.27.PPV.HDTV.720p.x264.MKV.AVC-FWG.By.Ravek.part19.rar

    Single Link [Only For Premium Users]



    Code:
    http://www.filesonic.com/file/507724361/WWE.Wrestlemania.27.PPV.HDTV.720p.x264.MKV.AVC-FWG.5GBLinks.By.Ravek.part1.rar
    http://www.filesonic.com/file/505564641/WWE.Wrestlemania.27.PPV.HDTV.720p.x264.MKV.AVC-FWG.5GBLinks.By.Ravek.part2.rar





    Code:
    No pass

 

 

Posting Permissions

  • You may not post new threads
  • You may not post replies
  • You may not post attachments
  • You may not edit your posts
  •