Results 1 to 1 of 1
  1. #1
    Banned www.desirulez.net
    Join Date
    Jan 2010
    Posts
    2,522

    T

    Default Making Of Chammak Challo With Akon - [Dj Rajiv- ExclusivE]

    Follow us on Social Media







    Making Of Chammak Challo With Akon - [Dj Rajiv- ExclusivE]

    General
    Complete name : Making Of Chammak Challo Akon - Dj Rajiv.avi
    Format : AVI
    File size : 244 MiB
    Duration : 7mn 18s
    Overall bit rate : 4 674 Kbps

    Video
    ID : 0
    Format : MPEG-4 Visual
    Format profile : Advanced [email protected]
    Format settings, BVOP : No
    Format settings, QPel : No
    Format settings, GMC : No warppoints
    Format settings, Matrix : Default (MPEG)
    Codec ID : XVID
    Codec ID/Hint : XviD
    Duration : 7mn 18s
    Bit rate : 4 475 Kbps
    Width : 1 280 pixels
    Height : 720 pixels
    Display aspect ratio : 16:9
    Frame rate : 25.000 fps
    Color space : YUV
    Chroma subsampling : 4:2:0
    Bit depth : 8 bits
    Scan type : Progressive
    Compression mode : Lossy
    Bits/(Pixel*Frame) : 0.194
    Stream size : 234 MiB (96%)
    Writing library : XviD 1.1.2 (UTC 2006-11-01)

    Audio
    ID : 1
    Format : MPEG Audio
    Format version : Version 1
    Format profile : Layer 3
    Codec ID : 55
    Codec ID/Hint : MP3
    Duration : 7mn 18s
    Bit rate mode : Constant
    Bit rate : 192 Kbps
    Channel(s) : 2 channels
    Sampling rate : 44.1 KHz
    Compression mode : Lossy
    Stream size : 10.0 MiB (4%)
    Alignment : Split accross interleaves
    Interleave, duration : 80 ms (2.00 video frames)
    Writing library : LAMELAME_MAJOR_VERSI

















    Code:
    http://www.filesonic.com/file/2297372011/Making_Of_Chammak_Challo_Akon_-_Dj_Rajiv.avi

    Code:
    http://www.wupload.com/file/276024375/Making_Of_Chammak_Challo_Akon_-_Dj_Rajiv.avi

    Code:
    http://www.fileserve.com/file/uESuSGV/Making_Of_Chammak_Challo_Akon_-_Dj_Rajiv.avi



 

 

Posting Permissions

  • You may not post new threads
  • You may not post replies
  • You may not post attachments
  • You may not edit your posts
  •