Results 1 to 8 of 8
  1. #1
    shawn rebecca
    Guest

    Exclamation UFC On Versus 3-Sanchez vs. Kampmann Weigh-in|PPV|Xvid|HDTV|720p|Prelim|PRESS|

    Follow us on Social Media







    UFC On Versus 3 - Sanchez vs. Kampmann Weigh-in|UFC-LIVE QandA 600k PatBarry

    UFC-LIVE QandA 600k PatBarry


    Pat Barry
    pre-UFC Live 3: Sanchez vs Kampmann

    talks about kicking, caffeine, working at DeathClutch, Served t-shirt, commercial and kicking
    takes off shirt for lady request
    Code:
    http://www.fileserve.com/file/j8gejKt/UFC-LIVE_QandA_600k_PatBarry.wmv
    ========================================================================

    UFC On Versus 3 - Sanchez vs. Kampmann Weigh-in



    General
    Complete name : UFC On Versus 3 - Sanchez vs. Kampmann Weigh-in WMV 600k.wmv
    Format : Windows Media
    File size : 557 MiB
    Duration : 25mn 17s
    Overall bit rate mode : Constant
    Overall bit rate : 3 078 Kbps
    Maximum Overall bit rate : 3 091 Kbps
    Encoded date : UTC 2011-03-02 20:59:58.671
    Frame Size : 16x9

    Video
    ID : 2
    Format : VC-1
    Format profile : [email protected]
    Codec ID : WMV3
    Codec ID/Info : Windows Media Video 9
    Codec ID/Hint : WMV3
    Description of the codec : Windows Media Video 9
    Duration : 25mn 17s
    Bit rate mode : Constant
    Bit rate : 3 000 Kbps
    Width : 720 pixels
    Height : 406 pixels
    Display aspect ratio : 16:9
    Frame rate : 29.970 fps
    Bit depth : 8 bits
    Scan type : Progressive
    Compression mode : Lossy
    Bits/(Pixel*Frame) : 0.342
    Stream size : 543 MiB (97%)
    Language : English (US)

    Audio
    ID : 1
    Format : WMA
    Format version : Version 2
    Codec ID : 161
    Codec ID/Info : Windows Media Audio
    Description of the codec : Windows Media Audio 9.2 - 64 kbps, 44 kHz, stereo (A/V) 1-pass CBR
    Duration : 25mn 17s
    Bit rate mode : Constant
    Bit rate : 64.0 Kbps
    Channel(s) : 2 channels
    Sampling rate : 44.1 KHz
    Bit depth : 16 bits
    Stream size : 11.6 MiB (2%)
    Language : English (US)
    Code:
    http://www.fileserve.com/file/eKAcMNn/UFC On Versus 3 - Sanchez vs. Kampmann Weigh-in WMV 600k.wmv

  2. #2
    shawn rebecca
    Guest

    Default

    UFC.on.Versus.3.Preshow.HDTV.XviD-KYR|720p|


    k n o w y o u r r o l e

    UFC.on.Versus.3.Preshow.HDTV.XviD-KYR

    title [ UFC on Versus 3
    genre [ MMA
    rel. date [ 03/03/11 format [ XviD
    air date [ 03/03/11 source [ HDTV
    runtime [ 44 MiN 41 SEC bitrate [ 1007kbps
    filesize [ 391,505,920 resolu. [ 624x352
    rar count [ 27x15MB (373 MB) frames [ 29.970
    audio [ 2ch 133kbps 48khz
    location [ USA

    UFC on Versus 3 Preshow

    No sound at the start is UFC/Versus fault

    Enjoy!
    Code:
    http://www.fileserve.com/file/nkTv6mr/ufc.on.versus.3.preshow.hdtv.xvid-kyr.avi
    ==================================================================

    UFC.on.Versus.3.Preshow.720p.HDTV.x264-KYR


    --------
    UFC.on.Versus.3.Preshow.720p.HDTV.x264-KYR
    --------

    title[ UFC on Versus 3
    genre[ MMA
    rel. date[ 03/03/11 format[ x264
    air date[ 03/03/11 source[ HDTV
    runtime[ 44 MiN 41 SEC bitrate[ 3044kbps
    filesize[ 1,172,344,940 resolu.[ 1280x720
    rar count[ 24x50MB (1119 MB) frames[ 29.970
    audio[ 2ch 384kbps 48khz
    location[ USA

    -

    UFC on Versus 3 Preshow

    No sound at the start is UFC/Versus fault

    Enjoy!
    Code:
    http://www.fileserve.com/file/AVXBdWQ/ufc.on.versus.3.preshow.720p.hdtv.x264-kyr.mkv


    Florida.Championship.Wrestling.2-13-11.Gman35.XWT

    Announcers: Matt Martlaro and Leo Kruger

    Card:
    Tito Colon vs. Brad Maddox
    Jinder Mahal vs. Percy Watson
    Aksana Show w/Kenny Li
    Non-title match
    (C) Damien Sandow and Titus O'neil vs. Marcus Owens and Xavier Woods
    FCW Championship
    (C) Mason Ryan vs. Calvin Raines
    Code:
    http://www.fileserve.com/file/zvhVC5g/FCW 2-13-11.Gman35.XWT.avi

  3. #3
    shawn rebecca
    Guest

    Default

    UFC.Fight.Night.Live.3rd.March.2011.HDTV-x264-Sir.Paul


    Filename:......: UFC.Fight.Night.Live.3rd.March.2011.HDTV-x264-Sir.Paul
    Release.Date...: 03.03.2011
    Air.Date.......: 03.03.2011
    Capper ........: Sir. Paul
    Genre..........: MMA
    Size...........: 998 mb
    Source.........: ESPN HD
    Container......: AVI
    Frame.Rate.....: 25 FPS
    Resolution.....: 624 x 352
    Aspect.Ratio...: 16.9
    Video.Codec....: x264
    Video.bitrate..: 1100 kbps
    Audio.Codec....: mp3
    Audio.bitrate..: 128
    Runtime........: 1.49.31 Mins
    Code:
    http://www.fileserve.com/file/3ZqBmss/UFC.Fight.Night.Live.3rd.March.2011.HDTV-x264-Sir.Paul.AVI

  4. #4
    shawn rebecca
    Guest

    Default

    UFC.on.Versus.3.Sanchez.vs.Kampmann.DSR.XviD-XWT


    Filename : UFC.Sanchez.vs.Kampmann.DSR.XviD-XWT.avi
    Air Date : March 3rd 2011
    Genre : MMA
    Channel : ESPN
    Aspect Ratio : 16:9 (640x368)
    Container : AVI
    Video Codec : XviD
    Audio Codec : MPEG-1 Audio Layer III (128kbs)
    Video Bitrate : 1050kbps
    Source : DSR
    Play Time : 1 Hours 52 Mins
    Release Size : 932 Meg
    Code:
    http://www.fileserve.com/file/D7WveQA/UFC.on.Versus.3.Sanchez.vs.Kampmann.DSR.XviD-XWT.avi

  5. #5
    shawn rebecca
    Guest

    Default

    UFC.on.Versus.3.Sanchez.vs.Kampmann.HDTV.XviD-aAF


    AGGRESSIVE ARCHIVE FORCE

    UFC.on.Versus.3.Sanchez.vs.Kampmann.HDTV.XviD-aAF

    RELEASE DATE: 2011.03.04

    Brian Bowles vs Damacio Page
    Igor Pokrajac vs Todd Brown
    Alessio Sakara vs Chris Weidman
    C.B. Dollaway vs Mark Munoz
    Thiago Tavares vs Shane Roller
    Diego Sanchez vs Martin Kampmann
    Code:
    http://www.fileserve.com/file/tzFHdSu/UFC.on.Versus.3.Sanchez.vs.Kampmann.HDTV.XviD-aAF.avi

  6. #6
    shawn rebecca
    Guest

    Default

    UFC.on.Versus.3.Sanchez.vs.Kampmann.720p.HDTV.x264-aAF


    UFC.on.Versus.3.Sanchez.vs.Kampmann.720p.HDTV.x264-aAF



    RELEASE DATE........: 2011.03.04

    Brian Bowles vs Damacio Page
    Igor Pokrajac vs Todd Brown
    Alessio Sakara vs Chris Weidman
    C.B. Dollaway vs Mark Munoz
    Thiago Tavares vs Shane Roller
    Diego Sanchez vs Martin Kampmann
    Code:
    http://www.fileserve.com/file/BeEak5h/aaf-ufconvs3.720p.mkv.001
    http://www.fileserve.com/file/nXRu9J6/aaf-ufconvs3.720p.mkv.002
    http://www.fileserve.com/file/yUcVcXe/aaf-ufconvs3.720p.mkv.003
    =================================================================================

    Bell To Bell Vol. 2- Iron Sheik & Jamie Dundee

    What happens when you mix the volatile combination of the Iron Sheik and Jaime Dundee? An explosive new DVD exclusively from RF VIDEO! Hot off the amazing success of our debut Bell to Bell series, we are back for more and we lined up two of the most outrageous personalities in wrestling!

    The original odd couple, second generation star Jaimie Dundee and the one and only Iron Sheik probably belong in a jail cell together, but instead we put them in front of the camera and let the sparks fly! All of our exhaustive notes went "up in smoke," so to speak, as these two men got out their gimmicks and put on a performance for the ages! Where else are you going to find out who "the biggest A-holes in wrestling" are? How many times will you ask yourself, "did he really just say what I think he said?!" Sheiky Baby goes off on all the usual suspects, including Warrior, Andres, Hogan, and Abby, and Jaime talks about all the major events in his career; including an alleged altercation with Ken Shamrock. PG-13. Bobby Heenan. Jim Ross. Miss Texas. The Rock. The list goes on and on as the boys talk about anyone and everyone in a way that only they can. We even got the boys to open up on the Michael Hayes/Mark Henry situation and you won't believe what came out of their mouths!

    They may be dazed and confused, but you'll be laughing your butt off during one of RF VIDEO's craziest releases of the year!
    Product Reviews
    Size: 1046398976 bytes (997.92 MiB), Duration: 01:44:04, Avg.bitrate: 1341 kb/s
    Audio: mp3, 48000 Hz, stereo, 112 kb/s
    Video: mpeg4, yuv420p, 512x384, 29.97 fps(r)
    Code:
    http://www.mediafire.com/?mxf2agdx7yj15pm

  7. #7
    shawn rebecca
    Guest

    Default

    UFC on Versus 3 Preliminary Fight - Thiago Tavares vs. Shane Roller


    General
    Complete name : UFC on Versus 3 Preliminary Fight - Thiago Tavares vs. Shane Roller.avi
    Format : AVI
    Format/Info : Audio Video Interleave
    File size : 95.2 MiB
    Duration : 8mn 19s
    Overall bit rate : 1 600 Kbps
    Writing library : The File had been created by Solveig Multimedia AVI Writer

    Video
    ID : 0
    Format : MPEG-4 Visual
    Format profile : Advanced [email protected]
    Format settings, BVOP : Yes
    Format settings, QPel : No
    Format settings, GMC : No warppoints
    Format settings, Matrix : Default (H.263)
    Codec ID : XVID
    Codec ID/Hint : XviD
    Duration : 8mn 19s
    Bit rate : 1 452 Kbps
    Width : 624 pixels
    Height : 352 pixels
    Display aspect ratio : 16:9
    Frame rate : 29.970 fps
    Color space : YUV
    Chroma subsampling : 4:2:0
    Bit depth : 8 bits
    Scan type : Progressive
    Compression mode : Lossy
    Bits/(Pixel*Frame) : 0.221
    Stream size : 86.5 MiB (91%)
    Writing library : XviD 1.2.1 (UTC 2008-12-04)

    Audio
    ID : 1
    Format : MPEG Audio
    Format version : Version 1
    Format profile : Layer 3
    Mode : Joint stereo
    Mode extension : MS Stereo
    Codec ID : 55
    Codec ID/Hint : MP3
    Duration : 8mn 18s
    Bit rate mode : Variable
    Bit rate : 134 Kbps
    Channel(s) : 2 channels
    Sampling rate : 48.0 KHz
    Compression mode : Lossy
    Delay relative to video : 2ms
    Stream size : 7.94 MiB (8%)
    Alignment : Aligned on interleaves
    Interleave, duration : 24 ms (0.72 video frame)
    Code:
    http://www.fileserve.com/file/yu6ntPv/UFC on Versus 3 Preliminary Fight - Thiago Tavares vs. Shane Roller.rar
    --------------------------------
    Code:
    http://www.fileserve.com/file/M4J7pqC/Jaki.Numazawa.7.Death.Match.Trial.Series.part3.rar
    http://www.fileserve.com/file/srnJH2W/Jaki.Numazawa.7.Death.Match.Trial.Series.part2.rar
    http://www.fileserve.com/file/axj5dKv/Jaki.Numazawa.7.Death.Match.Trial.Series.part1.rar
    http://www.fileserve.com/file/t4dZSEK/Jaki.Numazawa.7.Death.Match.Trial.Series.part4.rar

  8. #8
    shawn rebecca
    Guest

    Default

    UFC.on.Versus.3.Preliminary.Fights.WEB-DL.XviD-HLP


    UFC.on.Versus.3.Preliminary.Fights.WEB-DL.XviD-HLP

    Contains:
    UFC.on.Versus.3.Cantwell.vs.Diabate.WEB-DL.XviD-HLP
    UFC.on.Versus.3.Mizugaki.vs.Duran.WEB-DL.XviD-HLP <- NUKED (UFC sourcefile broken, will provide proper when available)
    UFC.on.Versus.3.Pokrajac.vs.Brown.WEB-DL.XviD-HLP
    UFC.on.Versus.3.Tavares.vs.Roller.WEB-DL.XviD-HLP
    Code:
    http://www.fileserve.com/file/3VSC4Kp/UFC.on.Versus.3.Preliminary.Fights.WEB-DL.XviD-HLP.rar

 

 

Posting Permissions

  • You may not post new threads
  • You may not post replies
  • You may not post attachments
  • You may not edit your posts
  •