Results 1 to 1 of 1
  1. #1
    shawn rebecca
    Guest

    Default UFC Ultimate Insider Episode 720p 43 [Rebecca]

    Follow us on Social Media







    UFC Ultimate Insider Episode 720p 43 [Rebecca]


    General
    Complete name : UFC Ultimate Insider Episode 43 - Fight Flashback, Fight School, Lorenzo Fertitta 720p.mp4
    Format : MPEG-4
    Format profile : Base Media / Version 2
    Codec ID : mp42
    File size : 415 MiB
    Duration : 17mn 48s
    Overall bit rate : 3 262 Kbps
    Encoded date : UTC 2011-07-07 10:02:56
    Tagged date : UTC 2011-07-07 10:03:01

    Video
    ID : 2
    Format : AVC
    Format/Info : Advanced Video Codec
    Format profile : [email protected]
    Format settings, CABAC : No
    Format settings, ReFrames : 2 frames
    Codec ID : avc1
    Codec ID/Info : Advanced Video Coding
    Duration : 17mn 48s
    Bit rate mode : Variable
    Bit rate : 3 025 Kbps
    Width : 1 280 pixels
    Height : 720 pixels
    Display aspect ratio : 16:9
    Frame rate mode : Constant
    Frame rate : 29.970 fps
    Color space : YUV
    Chroma subsampling : 4:2:0
    Bit depth : 8 bits
    Scan type : Progressive
    Bits/(Pixel*Frame) : 0.110
    Stream size : 385 MiB (93%)
    Language : English
    Encoded date : UTC 2011-07-07 10:02:45
    Tagged date : UTC 2011-07-07 10:03:01
    Color primaries : BT.709-5, BT.1361, IEC 61966-2-4, SMPTE RP177
    Transfer characteristics : BT.709-5, BT.1361
    Matrix coefficients : BT.709-5, BT.1361, IEC 61966-2-4 709, SMPTE RP177

    Audio
    ID : 1
    Format : AAC
    Format/Info : Advanced Audio Codec
    Format profile : LC
    Codec ID : 40
    Duration : 17mn 48s
    Bit rate mode : Constant
    Bit rate : 48.0 Kbps
    Channel(s) : 1 channel
    Channel positions : Front: C
    Sampling rate : 44.1 KHz
    Compression mode : Lossy
    Stream size : 6.14 MiB (1%)
    Language : English
    Encoded date : UTC 2011-07-07 10:02:45
    Tagged date : UTC 2011-07-07 10:03:01
    Code:
    http://www.filesonic.com/file/1435311594/UFC Ultimate Insider Episode 43     -   Fight Flashback, Fight School, Lorenzo Fertitta 720p.mp4
    Code:
    http://www.fileserve.com/file/9y3BZ3X/UFC Ultimate Insider Episode 43-Fight Flashback, Fight School, Lorenzo Fertitta 720p.mp4

 

 

Posting Permissions

  • You may not post new threads
  • You may not post replies
  • You may not post attachments
  • You may not edit your posts
  •