Results 1 to 1 of 1
  1. #1
    shawn rebecca
    Guest

    Default UFC Connected 05-16-2011

    Follow us on Social Media







    UFC Connected 05-16-2011


    General
    Complete name : UFC Connected 05-16-2011.flv
    Format : Flash Video
    File size : 124 MiB
    Duration : 22mn 17s
    Overall bit rate : 777 Kbps
    Tagging application : Yet Another Metadata Injector for FLV - Version 1.5

    Video
    Format : H.263
    Duration : 22mn 17s
    Bit rate : 689 Kbps
    Width : 294 pixels
    Height : 240 pixels
    Display aspect ratio : 1.225
    Frame rate mode : Constant
    Frame rate : 20.000 fps
    Compression mode : Lossy
    Bits/(Pixel*Frame) : 0.488
    Stream size : 113 MiB (91%)

    Audio
    Format : MPEG Audio
    Format version : Version 2
    Format profile : Layer 3
    Mode : Joint stereo
    Mode extension : MS Stereo
    Duration : 22mn 17s
    Bit rate mode : Constant
    Bit rate : 64.0 Kbps
    Channel(s) : 2 channels
    Sampling rate : 22.05 KHz
    Bit depth : 16 bits
    Compression mode : Lossy
    Stream size : 10.8 MiB (9%)
    Code:
    http://www.fileserve.com/file/8mFTHmd/UFC Connected 05-16-2011.flv
    Code:
    http://www.filesonic.com/file/1024961664/UFC Connected 05-16-2011.flv

 

 

Posting Permissions

  • You may not post new threads
  • You may not post replies
  • You may not post attachments
  • You may not edit your posts
  •