Results 1 to 1 of 1
  1. #1
    Hot Member www.desirulez.me
    Join Date
    Sep 2011
    Posts
    2,243

    T

    Default UFC.137.PPV.WS.DSR.XviD-SuperS / FB.Prelims.WEBRip.x264-FTR

    Follow us on Social Media







    UFC.137.PPV.WS.DSR.XviD-SuperS / UFC.137.Penn.vs.Diaz.FB.Prelims.WEBRip.x264-FTR



    INFO
    Code:
    Format : AVI 
    Format/Info : Audio Video Interleave 
    Format profile : OpenDML 
    File size : 1.19 GiB 
    Duration : 2h 53mn 
    Overall bit rate : 981 Kbps 
    Writing library : MPlayer 
    
    Video 
    ID : 0 
    Format : MPEG-4 Visual 
    Codec ID : XVID 
    Codec ID/Hint : XviD 
    Duration : 2h 53mn 
    Bit rate : 25.9 Kbps 
    Width : 624 pixels 
    Height : 352 pixels 
    Display aspect ratio : 16:9 
    Frame rate : 25.000 fps 
    Color space : YUV 
    Chroma subsampling : 4:2:0 
    Compression mode : Lossy 
    Bits/(Pixel*Frame) : 0.005 
    Stream size : 32.1 MiB (3%) 
    
    Audio 
    ID : 1 
    Format : MPEG Audio 
    Codec ID : 55 
    Codec ID/Hint : MP3 
    Duration : 2h 53mn 
    Bit rate : 119 Kbps 
    Channel(s) : 2 channels 
    Sampling rate : 48.0 KHz 
    Compression mode : Lossy 
    Stream size : 148 MiB (12%) 
    Alignment : Aligned on interleaves
    SINGLE LINKS
    Code:
    http://www.fileserve.com/file/78f2XJP/UFC.137.PPV.WS.DSR.XviD-SuperS.avi
    
    http://www.filesonic.com/file/2826814315/UFC.137.PPV.WS.DSR.XviD-SuperS.avi
    
    http://www.wupload.com/file/1678907171/UFC.137.PPV.WS.DSR.XviD-SuperS.avi
    
    http://www.filejungle.com/f/Hunj7Z/UFC.137.PPV.WS.DSR.XviD-SuperS.avi
    
    http://www.uploadstation.com/file/YSk877g/UFC.137.PPV.WS.DSR.XviD-SuperS.avi
    SPLIT LINKS
    Code:
    http://www.fileserve.com/file/cnz55a3/UFC.137.PPV.WS.DSR.XviD-SuperS.part1.rar
    http://www.fileserve.com/file/tnyV3UT/UFC.137.PPV.WS.DSR.XviD-SuperS.part2.rar
    Code:
    http://www.filesonic.com/file/2826814255/UFC.137.PPV.WS.DSR.XviD-SuperS.part1.rar
    http://www.filesonic.com/file/2826814265/UFC.137.PPV.WS.DSR.XviD-SuperS.part2.rar
    Code:
    http://www.wupload.com/file/1678907196/UFC.137.PPV.WS.DSR.XviD-SuperS.part1.rar
    http://www.wupload.com/file/1678907201/UFC.137.PPV.WS.DSR.XviD-SuperS.part2.rar
    Code:
    http://www.filejungle.com/f/qvkvhf/UFC.137.PPV.WS.DSR.XviD-SuperS.part1.rar
    http://www.filejungle.com/f/CdP2rx/UFC.137.PPV.WS.DSR.XviD-SuperS.part2.rar
    Code:
    http://www.uploadstation.com/file/ZGhA7h4/UFC.137.PPV.WS.DSR.XviD-SuperS.part1.rar
    http://www.uploadstation.com/file/b8BVZ98/UFC.137.PPV.WS.DSR.XviD-SuperS.part2.rar
    UFC.137.Penn.vs.Diaz.FB.Prelims.WEBRip.x264-FTR

    INFO
    Code:
    UFC.137.Penn.vs.Diaz.FB.Prelims.WEBRip.x264-FTR</strong> 
    
    <blockquote>-------- 
    UFC.137.Penn.vs.Diaz.FB.Prelims.WEBRip.x264-FTR 
    -------- 
    
    rel. date 29/10/2011 format x264 
    air date 29/10/2011 source WEBRip 
    runtime 01:42:46 bitrate 1100 kbps 
    filesize 954.32 MB resolution 624 x 352 
    frames 29.97 
    audio AAC 192 kbps, 44,1 khz 
    
    October 29, 2011 
    Mandalay Bay Events Center, Las Vegas, Nevada, USA 
    
    Dustin Jacoby vs Clifford Starks 
    Chris Camozzi vs Francis Carmont 
    Ramsey Nijem vs Danny Downes 
    Brandon Vera vs Eliot Marshall
    Code:
    http://www.fileserve.com/file/gDFGGXT/UFC.137.Penn.vs.Diaz.FB.Prelims.WEBRip.x264-FTR.mp4
    
    http://www.filesonic.com/file/2826814215/UFC.137.Penn.vs.Diaz.FB.Prelims.WEBRip.x264-FTR.mp4
    
    http://www.wupload.com/file/1678907206/UFC.137.Penn.vs.Diaz.FB.Prelims.WEBRip.x264-FTR.mp4
    
    http://www.filejungle.com/f/t7ZUms/UFC.137.Penn.vs.Diaz.FB.Prelims.WEBRip.x264-FTR.mp4
    
    http://www.uploadstation.com/file/GCsZZvJ/UFC.137.Penn.vs.Diaz.FB.Prelims.WEBRip.x264-FTR.mp4
    DONT FORGET TO SAY THANKS

 

 

Posting Permissions

  • You may not post new threads
  • You may not post replies
  • You may not post attachments
  • You may not edit your posts
  •