Results 1 to 2 of 2
  1. #1
    dR Dazzler www.desirulez.net
    Join Date
    Mar 2009
    Posts
    1,518

    T

    Default UFC 137 PPV WS DSR XviD-SuperS

    Follow us on Social Media









    UFC 137 PPV WS DSR XviD-SuperS


    Code:
        
    General Information
    Format : AVI
    Format/Info : Audio Video Interleave
    Format profile : OpenDML
    File size : 1.19 GiB
    Duration : 2h 53mn
    Overall bit rate : 981 Kbps
    Writing library : MPlayer
    Video
    ID : 0
    Format : MPEG-4 Visual
    Codec ID : XVID
    Codec ID/Hint : XviD
    Duration : 2h 53mn
    Bit rate : 25.9 Kbps
    Width : 624 pixels
    Height : 352 pixels
    Display aspect ratio : 16:9
    Frame rate : 25.000 fps
    Color space : YUV
    Chroma subsampling : 4:2:0
    Compression mode : Lossy
    Bits/(Pixel*Frame) : 0.005
    Stream size : 32.1 MiB (3%)
    Audio
    ID : 1
    Format : MPEG Audio
    Codec ID : 55
    Codec ID/Hint : MP3
    Duration : 2h 53mn
    Bit rate : 119 Kbps
    Channel(s) : 2 channels
    Sampling rate : 48.0 KHz
    Compression mode : Lossy
    Stream size : 148 MiB (12%)
    Alignment : Aligned on interleaves
    Single Link:-
    Code:
    http://www.filesonic.com/file/2825031375/UFC.137.PPV.WS.DSR.XviD-SS.avi
    Code:
    FileServe Link:-
    http://www.fileserve.com/file/6PbqyWR/UFC.137.PPV.WS.DSR.XviD-SS.part1.rar
    http://www.fileserve.com/file/Aj4q9hS/UFC.137.PPV.WS.DSR.XviD-SS.part2.rar
    
    
    FileSonic Link:-
    http://www.filesonic.com/file/2825031275/UFC.137.PPV.WS.DSR.XviD-SS.part1.rar
    http://www.filesonic.com/file/2825026915/UFC.137.PPV.WS.DSR.XviD-SS.part2.rar
    
    Wupload Link:-
    http://www.wupload.com/file/1655638841/UFC.137.PPV.WS.DSR.XviD-SS.part1.rar
    http://www.wupload.com/file/1655627611/UFC.137.PPV.WS.DSR.XviD-SS.part2.rar

  2. #2
    Banned www.desirulez.net
    Join Date
    May 2011
    Posts
    606

    T

    Default

    thank superb post buddy

 

 

Posting Permissions

  • You may not post new threads
  • You may not post replies
  • You may not post attachments
  • You may not edit your posts
  •