Results 1 to 1 of 1
  1. #1
    shawn rebecca
    Guest

    Default UFC 136 Facebook Preliminary Fights 720p x264

    Follow us on Social Media







    UFC 136 Facebook Preliminary Fights 720p x264


    Preliminary card (Facebook)

    Heavyweight bout: United States Joey Beltran vs. United States Stipe Miocic
    Featherweight bout: China Zhang Tie Quan vs. United States Darren Elkins
    Middleweight bout: United States Aaron Simpson vs. United States Eric Schafer
    Middleweight bout: United States Steve Cantwell vs. United States Mike Massenzio

    Video -

    Format : MPEG-4
    Format profile : Base Media / Version 2
    Writing library : x264 core 112
    Codec ID : mp42
    File size : 1.39 GiB
    Duration : 1h 44mn
    Format : AVC
    Format/Info : Advanced Video Codec
    Format settings, CABAC : Yes
    Format settings, ReFrames : 4 frames
    Codec ID : avc1
    Duration : 1h 44mn
    Bit rate : 1 737 Kbps
    Width : 1 280 pixels
    Height : 720 pixels
    Display aspect ratio : 16:9
    Frame rate mode : Constant
    Frame rate : 25.000 fps
    Color space : YUV
    Chroma subsampling : 4:2:0
    Bit depth : 8 bits
    Scan type : Progressive
    Bits/(Pixel*Frame) : 0.075
    Stream size : 1.27 GiB (91%)

    Audio -
    Format : AAC
    Format profile : LC
    Codec ID : 40
    Duration : 1h 44mn
    Channel(s) : 2 channels
    Channel positions : Front: L R
    Sampling rate : 44.1 KHz
    Stream size : 119 MiB (8%)
    Single LINKS

    Code:
    http://www.filesonic.com/file/2459635144/UFC.136.Facebook.Preliminary.Fights.720p.x264.mp4
    Code:
    http://www.fileserve.com/file/crvWjCN/UFC.136.Facebook.Preliminary.Fights.720p.x264.mp4[
    1GB LINKS

    Code:
    http://www.filesonic.com/file/2459689734/UFC.136.Facebook.Preliminary.Fights.720p.x264.part1.rar
    http://www.filesonic.com/file/2459689544/UFC.136.Facebook.Preliminary.Fights.720p.x264.part2.rar
    Code:
    http://www.fileserve.com/file/6PRuNjp/UFC.136.Facebook.Preliminary.Fights.720p.x264.part1.rar
    http://www.fileserve.com/file/HNy7mHm/UFC.136.Facebook.Preliminary.Fights.720p.x264.part2.rar

 

 

Posting Permissions

  • You may not post new threads
  • You may not post replies
  • You may not post attachments
  • You may not edit your posts
  •