Results 1 to 1 of 1
  1. #1
    shawn rebecca
    Guest

    Default UFC 135 Jones vs Rampage weigh ins 720p mp4

    Follow us on Social Media







    UFC 135 Jones vs Rampage weigh ins 720p mp4


    UFC 135 Jones vs Rampage weigh ins 720p mp4.mp4
    Format : MPEG-4
    Format profile : Base Media
    Codec ID : isom
    File size : 552 MiB
    Duration : 25mn 15s
    Overall bit rate : 3 058 Kbps

    Video
    ID : 1
    Format : AVC
    Format/Info : Advanced Video Codec
    Format profile : [email protected]
    Format settings, CABAC : Yes
    Format settings, ReFrames : 3 frames
    Codec ID : avc1
    Codec ID/Info : Advanced Video Coding
    Duration : 25mn 15s
    Bit rate : 2 797 Kbps
    Width : 1 280 pixels
    Height : 720 pixels
    Display aspect ratio : 16:9
    Frame rate mode : Variable
    Frame rate : 29.970 fps
    Minimum frame rate : 29.412 fps
    Maximum frame rate : 30.303 fps
    Color space : YUV
    Chroma subsampling : 4:2:0
    Bit depth : 8 bits
    Scan type : Progressive
    Bits/(Pixel*Frame) : 0.101
    Stream size : 505 MiB (91%)
    Title : NeuLion MP4 - Video

    Audio
    ID : 2
    Format : AAC
    Format/Info : Advanced Audio Codec
    Format profile : LC
    Codec ID : 40
    Duration : 25mn 15s
    Bit rate mode : Variable
    Bit rate : 126 Kbps
    Channel(s) : 2 channels
    Channel positions : Front: L R
    Sampling rate : 44.1 KHz
    Compression mode : Lossy
    Stream size : 22.7 MiB (4%)
    Code:
    http://www.filesonic.com/file/2134065024/UFC 135 Jones vs Rampage weigh ins 720p.mp4
    Code:
    http://www.fileserve.com/file/a7W2pKk/UFC_135_Jones_vs_Rampage_weigh_ins_720p.mp4

 

 

Posting Permissions

  • You may not post new threads
  • You may not post replies
  • You may not post attachments
  • You may not edit your posts
  •