Results 1 to 1 of 1
  1. #1
    shawn rebecca
    Guest

    Default UFC 134 HDTV AC3 x264 GTi MKV

    Follow us on Social Media







    UFC 134 HDTV AC3 x264 GTi MKV


    Code:
    Name:	UFC.134.HDTV.AC3.X264.MKV-GTi
    Description:
    SAMPLE INCLUDED
    
    File size                        : 1.62 GiB
    Duration                         : 2h 42mn
    Overall bit rate                 : 1 432 Kbps
    Encoded date                     : UTC 2011-08-28 05:33:02
    Writing application              : mkvmerge v2.7.0 ('Do It Again') built on Jul  2 2010 15:54:17
    Writing library                  : libebml v0.7.7 + libmatroska v0.8.1
    
    Video
    ID                               : 1
    Format                           : AVC
    Format/Info                      : Advanced Video Codec
    Format profile                   : [email protected]
    Format settings, CABAC           : Yes
    Format settings, ReFrames        : 4 frames
    Codec ID                         : V_MPEG4/ISO/AVC
    Duration                         : 2h 42mn
    Bit rate                         : 1 050 Kbps
    Width                            : 624 pixels
    Height                           : 352 pixels
    Display aspect ratio             : 16:9
    Frame rate mode                  : Variable
    Frame rate                       : 25.000 fps
    Color space                      : YUV
    Chroma subsampling               : 4:2:0
    Bit depth                        : 8 bits
    Scan type                        : Progressive
    Bits/(Pixel*Frame)               : 0.191
    Stream size                      : 1.16 GiB (71%)
    Writing library                  : x264 core 112
    
    Audio
    ID                               : 2
    Format                           : AC-3
    Format/Info                      : Audio Coding 3
    Mode extension                   : CM (complete main)
    Codec ID                         : A_AC3
    Duration                         : 2h 42mn
    Bit rate mode                    : Constant
    Bit rate                         : 384 Kbps
    Channel(s)                       : 2 channels
    Channel positions                : Front: L R
    Sampling rate                    : 48.0 KHz
    Bit depth                        : 16 bits
    Compression mode                 : Lossy
    Stream size                      : 446 MiB (27%)

    SINGLE LINKS

    Code:
    http://www.fileserve.com/file/YzdUUPd/UFC.134.HDTV.AC3.X264.MKV-GTi.mkv
    Code:
    http://www.filesonic.com/file/1778668654/UFC.134.HDTV.AC3.X264.MKV-GTi.mkv

    1 GB LINKS


    Code:
    http://www.fileserve.com/file/398JnYy/UFC.134.HDTV.AC3.X264.MKV-GTi.part2.rar
    http://www.fileserve.com/file/hn6QCYH/UFC.134.HDTV.AC3.X264.MKV-GTi.part1.rar
    Code:
    http://www.filesonic.com/file/1778674454/UFC.134.HDTV.AC3.X264.MKV-GTi.part1.rar
    http://www.filesonic.com/file/1778674744/UFC.134.HDTV.AC3.X264.MKV-GTi.part2.rar

 

 

Posting Permissions

  • You may not post new threads
  • You may not post replies
  • You may not post attachments
  • You may not edit your posts
  •