Results 1 to 1 of 1
  1. #1
    shawn rebecca
    Guest

    Lightbulb UFC.126.Prelims HDTV aAF + Freak

    Follow us on Social Media







    UFC.126.Prelims HDTV aAF + Freak

    UFC.126.Prelims.ESPN.HDTV.XviD-Freak



    UFC 126 Prelims on Spike. Source from ESPN HD UK.
    General
    Format : AVI
    Format/Info : Audio Video Interleave
    File size : 458 MiB
    Duration : 53mn 5s
    Overall bit rate : 1 206 Kbps

    Video
    ID : 0
    Format : MPEG-4 Visual
    Format profile : Advanced [email protected]
    Format settings, BVOP : Yes
    Format settings, QPel : No
    Format settings, GMC : No warppoints
    Format settings, Matrix : Default (H.263)
    Muxing mode : Packed bitstream
    Codec ID : XVID
    Codec ID/Hint : XviD
    Duration : 53mn 5s
    Bit rate : 1 068 Kbps
    Width : 624 pixels
    Height : 352 pixels
    Display aspect ratio : 16:9
    Frame rate : 25.000 fps
    Resolution : 8 bits
    Colorimetry : 4:2:0
    Scan type : Progressive
    Bits/(Pixel*Frame) : 0.195
    Stream size : 406 MiB (89%)
    Writing library : XviD 1.2.1 (UTC 2008-12-04)

    Audio
    ID : 1
    Format : MPEG Audio
    Format version : Version 1
    Format profile : Layer 3
    Mode : Joint stereo
    Codec ID : 55
    Codec ID/Hint : MP3
    Duration : 53mn 5s
    Bit rate mode : Constant
    Bit rate : 128 Kbps
    Channel(s) : 2 channels
    Sampling rate : 48.0 KHz
    Stream size : 48.6 MiB (11%)
    Alignment : Aligned on interleaves
    Interleave, duration : 40 ms (1.00 video frame)
    Interleave, preload duration : 480 ms
    Enjoy
    Code:
    http://www.fileserve.com/file/WC9hAAz
    ============================================================================
    UFC.126.Preliminary.Fights.HDTV.XviD-aAF


    UFC.126.Preliminary.Fights.HDTV.XviD-aAF
    RELEASE DATE........: 2011.02.06
    C.Mendes vs M.Omigawa
    K.Kingsbury vs R.Romero
    D.Cerrone vs P.Kelly
    Big up all scene massive!
    Code:
    http://www.fileserve.com/file/4s3qugx

 

 

Posting Permissions

  • You may not post new threads
  • You may not post replies
  • You may not post attachments
  • You may not edit your posts
  •