Results 1 to 2 of 2
  1. #1
    Hot Member www.desirulez.net
    Join Date
    Jan 2011
    Posts
    1,881

    T

    Cool UFC 126 ESPN HDTV XviD-FreaK

    Follow us on Social Media







    UFC 126 ESPN HDTV XviD-FreaK



    Code:
    General Information
    
    Format : AVI
    Format/Info : Audio Video Interleave
    File size : 1.44 GiB
    Duration : 2h 51mn
    Overall bit rate : 1 205 Kbps
    Video
    ID : 0
    Format : MPEG-4 Visual
    Format profile : Advanced [email protected]
    Format settings, BVOP : Yes
    Format settings, QPel : No
    Format settings, GMC : No warppoints
    Format settings, Matrix : Default (H.263)
    Muxing mode : Packed bitstream
    Codec ID : XVID
    Codec ID/Hint : XviD
    Duration : 2h 51mn
    Bit rate : 1 067 Kbps
    Width : 624 pixels
    Height : 352 pixels
    Display aspect ratio : 16:9
    Frame rate : 25.000 fps
    Resolution : 8 bits
    Colorimetry : 4:2:0
    Scan type : Progressive
    Bits/(Pixel*Frame) : 0.194
    Stream size : 1.28 GiB (89%)
    Writing library : XviD 1.2.1 (UTC 2008-12-04)
    Audio
    ID : 1
    Format : MPEG Audio
    Format version : Version 1
    Format profile : Layer 3
    Mode : Joint stereo
    Format_Settings_ModeExtension : MS Stereo
    Codec ID : 55
    Codec ID/Hint : MP3
    Duration : 2h 51mn
    Bit rate mode : Constant
    Bit rate : 128 Kbps
    Channel(s) : 2 channels
    Sampling rate : 48.0 KHz
    Stream size : 157 MiB (11%)
    Alignment : Aligned on interleaves
    Interleave, duration : 40 ms (1.00 video frame)
    Interleave, preload duration : 480 ms


    Single Links
    Code:
    http://www.fileserve.com/file/tJ4neDM/UFC.126.ESPN.HDTV.XviD-FreaK.pt1.avi
    http://www.fileserve.com/file/7Q6z3TS/UFC.126.ESPN.HDTV.XviD-FreaK.pt2.avi
    OR
    http://www.filesonic.com/file/75985966/UFC.126.ESPN.HDTV.XviD-FreaK.pt1.avi
    http://www.filesonic.com/file/75986116/UFC.126.ESPN.HDTV.XviD-FreaK.pt2.avi
    400MB links

    Code:
    http://www.fileserve.com/file/dV9YbaT/UFC.126.ESPN.HDTV.XviD-FreaK.part1.rar
    http://www.fileserve.com/file/fPfqAub/UFC.126.ESPN.HDTV.XviD-FreaK.part2.rar
    http://www.fileserve.com/file/SetBTN8/UFC.126.ESPN.HDTV.XviD-FreaK.part3.rar
    http://www.fileserve.com/file/cJeNh6r/UFC.126.ESPN.HDTV.XviD-FreaK.part4.rar

    Code:
    http://www.filesonic.com/file/75967271/UFC.126.ESPN.HDTV.XviD-FreaK.part1.rar
    http://www.filesonic.com/file/75952448/UFC.126.ESPN.HDTV.XviD-FreaK.part2.rar
    http://www.filesonic.com/file/75951900/UFC.126.ESPN.HDTV.XviD-FreaK.part3.rar
    http://www.filesonic.com/file/75960433/UFC.126.ESPN.HDTV.XviD-FreaK.part4.rar

    Code:
    http://netload.in/dateiEYXsrI90SO/UFC.126.ESPN.HDTV.XviD-FreaK.part1.rar.htm
    http://netload.in/dateiwnD0BtHw3g/UFC.126.ESPN.HDTV.XviD-FreaK.part2.rar.htm
    http://netload.in/dateiFUIOCki9Qg/UFC.126.ESPN.HDTV.XviD-FreaK.part3.rar.htm
    http://netload.in/datei8h1l2c99rm/UFC.126.ESPN.HDTV.XviD-FreaK.part4.rar.htm

    Code:
    http://hotfile.com/dl/102353846/3c82fc3/UFC.126.ESPN.HDTV.XviD-FreaK.part1.rar.html
    http://hotfile.com/dl/102354357/c014ea5/UFC.126.ESPN.HDTV.XviD-FreaK.part2.rar.html
    http://hotfile.com/dl/102354297/9ca1c27/UFC.126.ESPN.HDTV.XviD-FreaK.part3.rar.html
    http://hotfile.com/dl/102352275/62f0cf3/UFC.126.ESPN.HDTV.XviD-FreaK.part4.rar.html

  2. #2
    New Arrivals
    Join Date
    Jul 2010
    Posts
    6

    T

    Default

    pls upload in mediafire or resumable link .and which which support parallel download link

 

 

Posting Permissions

  • You may not post new threads
  • You may not post replies
  • You may not post attachments
  • You may not edit your posts
  •