Results 1 to 1 of 1
  1. #1
    dR Dazzler www.desirulez.net
    Join Date
    Mar 2009
    Posts
    1,518

    T

    Default UFC.126.ESPN.HDTV.XviD-FreaK

    Follow us on Social Media







    UFC.126.ESPN.HDTV.XviD-FreaK

    UFC 126 - FULL SHOW - Source from ESPN HD UK.




    Code:
    General
    Format                           : AVI
    Format/Info                      : Audio Video Interleave
    File size                        : 1.44 GiB
    Duration                         : 2h 51mn
    Overall bit rate                 : 1 205 Kbps
    
    Video
    ID                               : 0
    Format                           : MPEG-4 Visual
    Format profile                   : Advanced [email protected]
    Format settings, BVOP            : Yes
    Format settings, QPel            : No
    Format settings, GMC             : No warppoints
    Format settings, Matrix          : Default (H.263)
    Muxing mode                      : Packed bitstream
    Codec ID                         : XVID
    Codec ID/Hint                    : XviD
    Duration                         : 2h 51mn
    Bit rate                         : 1 067 Kbps
    Width                            : 624 pixels
    Height                           : 352 pixels
    Display aspect ratio             : 16:9
    Frame rate                       : 25.000 fps
    Resolution                       : 8 bits
    Colorimetry                      : 4:2:0
    Scan type                        : Progressive
    Bits/(Pixel*Frame)               : 0.194
    Stream size                      : 1.28 GiB (89%)
    Writing library                  : XviD 1.2.1 (UTC 2008-12-04)
    
    Audio
    ID                               : 1
    Format                           : MPEG Audio
    Format version                   : Version 1
    Format profile                   : Layer 3
    Mode                             : Joint stereo
    Format_Settings_ModeExtension    : MS Stereo
    Codec ID                         : 55
    Codec ID/Hint                    : MP3
    Duration                         : 2h 51mn
    Bit rate mode                    : Constant
    Bit rate                         : 128 Kbps
    Channel(s)                       : 2 channels
    Sampling rate                    : 48.0 KHz
    Stream size                      : 157 MiB (11%)
    Alignment                        : Aligned on interleaves
    Interleave, duration             : 40 ms (1.00 video frame)
    Interleave, preload duration     : 480 ms
    Code:
    http://hotfile.com/dl/102325856/564e640/UFC.126.ESPN.HDTV.XviD-FreaK.part1.rar.html
    http://hotfile.com/dl/102325855/c8c5a3a/UFC.126.ESPN.HDTV.XviD-FreaK.part2.rar.html
    Code:
    http://www.fileserve.com/file/5MJHtVH/UFC.126.ESPN.HDTV.XviD-FreaK.part1.rar
    http://www.fileserve.com/file/m275Kzh/UFC.126.ESPN.HDTV.XviD-FreaK.part2.rar

    Code:
    http://rapidshare.com/files/446464908/UFC.126.ESPN.HDTV.XviD-FreaK.part16.rar
    http://rapidshare.com/files/446465213/UFC.126.ESPN.HDTV.XviD-FreaK.part12.rar
    http://rapidshare.com/files/446465214/UFC.126.ESPN.HDTV.XviD-FreaK.part09.rar
    http://rapidshare.com/files/446465216/UFC.126.ESPN.HDTV.XviD-FreaK.part10.rar
    http://rapidshare.com/files/446465218/UFC.126.ESPN.HDTV.XviD-FreaK.part11.rar
    http://rapidshare.com/files/446465220/UFC.126.ESPN.HDTV.XviD-FreaK.part15.rar
    http://rapidshare.com/files/446465222/UFC.126.ESPN.HDTV.XviD-FreaK.part13.rar
    http://rapidshare.com/files/446465234/UFC.126.ESPN.HDTV.XviD-FreaK.part14.rar
    http://rapidshare.com/files/446464734/UFC.126.ESPN.HDTV.XviD-FreaK.part06.rar
    http://rapidshare.com/files/446464737/UFC.126.ESPN.HDTV.XviD-FreaK.part07.rar
    http://rapidshare.com/files/446464738/UFC.126.ESPN.HDTV.XviD-FreaK.part04.rar
    http://rapidshare.com/files/446464739/UFC.126.ESPN.HDTV.XviD-FreaK.part02.rar
    http://rapidshare.com/files/446464742/UFC.126.ESPN.HDTV.XviD-FreaK.part03.rar
    http://rapidshare.com/files/446464743/UFC.126.ESPN.HDTV.XviD-FreaK.part05.rar
    http://rapidshare.com/files/446464744/UFC.126.ESPN.HDTV.XviD-FreaK.part01.rar
    http://rapidshare.com/files/446464745/UFC.126.ESPN.HDTV.XviD-FreaK.part08.rar
    Code:
    http://www.megaupload.com/?d=HJ46160W
    http://www.megaupload.com/?d=L2Q00BIJ
    http://www.megaupload.com/?d=7K3Q0BSB
    http://www.megaupload.com/?d=5N5MRZJ0
    http://www.megaupload.com/?d=YA98LGA5
    http://www.megaupload.com/?d=ZXB76HV9
    http://www.megaupload.com/?d=ZVTO163L
    http://www.megaupload.com/?d=DM0KJOYD
    http://www.megaupload.com/?d=BTE9MLB7
    http://www.megaupload.com/?d=Y4C4LR4C
    http://www.megaupload.com/?d=WUQYAICJ
    http://www.megaupload.com/?d=MY3G925V
    http://www.megaupload.com/?d=UHAOUXEC
    http://www.megaupload.com/?d=44ADC444
    http://www.megaupload.com/?d=P6BN9VHG
    http://www.megaupload.com/?d=DH9Y4KQZ
    Last edited by Problem; 02-06-2011 at 03:32 PM.

 

 

Posting Permissions

  • You may not post new threads
  • You may not post replies
  • You may not post attachments
  • You may not edit your posts
  •