Results 1 to 1 of 1
  1. #1
    shawn rebecca
    Guest

    Lightbulb Strikeforce.Diaz.vs.Cyborg.XviD-Rocky

    Follow us on Social Media







    Strikeforce.Diaz.vs.Cyborg.XviD-Rocky



    ************************************************** *****************************
    Rocky Original-Uploader
    ************************************************** *****************************
    -------------------------------------------------------------------------------
    General Information
    -------------------------------------------------------------------------------

    Complete name : Nick.Diaz. vs.Evangelista Cyborg-2011.01.29-XviD-Rocky.
    Format : AVI
    Format/Info : Audio Video Interleave
    File size : 1.61 GiB
    Duration : 1h 34mn
    Overall bit rate : 2 444 Kbps

    Video
    ID : 0
    Format : MPEG-4 Visual
    Format profile : Advanced [email protected]
    Format settings, BVOP : Yes
    Format settings, QPel : No
    Format settings, GMC : No warppoints
    Format settings, Matrix : Default (H.263)
    Muxing mode : Packed bitstream
    Codec ID : XVID
    Codec ID/Hint : XviD
    Duration : 1h 34mn
    Bit rate : 2 304 Kbps
    Width : 720 pixels
    Height : 576 pixels
    Display aspect ratio : 5:4
    Frame rate : 29.970 fps
    Standard : PAL
    Color space : YUV
    Chroma subsampling : 4:2:0
    Bit depth : 8 bits
    Scan type : Progressive
    Compression mode : Lossy
    Bits/(Pixel*Frame) : 0.185
    Stream size : 1.52 GiB (94%)
    Writing library : XviD 1.1.0 (UTC 2005-11-22)

    Audio
    ID : 1
    Format : MPEG Audio
    Format version : Version 1
    Format profile : Layer 3
    Codec ID : 55
    Codec ID/Hint : MP3
    Duration : 1h 34mn
    Bit rate mode : Constant
    Bit rate : 128 Kbps
    Channel(s) : 2 channels
    Sampling rate : 48.0 KHz
    Compression mode : Lossy
    Delay relative to video : 24ms
    Stream size : 86.3 MiB (5%)
    Alignment : Split accross interleaves
    Interleave, duration : 33 ms (1.00 video frame)
    Interleave, preload duration : 44 ms
    Title : Audio Stream
    Code:
    http://www.fileserve.com/file/uesjjjV
    http://www.fileserve.com/file/EW4JZQP

 

 

Posting Permissions

  • You may not post new threads
  • You may not post replies
  • You may not post attachments
  • You may not edit your posts
  •