Results 1 to 1 of 1
  1. #1
    dR Dazzler www.desirulez.net
    Join Date
    Mar 2009
    Posts
    1,518

    T

    Default Julio Cesar Chavez jr vs Peter Manfredo Jr - HBO

    Follow us on Social Media







    Julio Cesar Chavez jr vs Peter Manfredo Jr - HBO



    Code:
    18 Nov 2011 Reliant Arena, Houston, Texas, United States
    This is a English version of the HBO broadcast of the fight between Julio Cesar Chavez jr and Peter Manfredo Jr.
    The Video Format is x264(MKV)
    Entrances: yes
    Introduction: yes
    Between rounds: Yes
    Interview(s): Both Fighters
    
    
    Complete name                    : HBO - Julio Cesar Chavez Jr. vs. Peter Manfredo Jr (MagicPotatoes).mkv
    Format                           : Matroska
    Format version                   : Version 2
    File size                        : 1.07 GiB
    Duration                         : xxxxx
    Overall bit rate                 : 3 874 Kbps
    Encoded date                     : UTC 2011-11-20 16:57:48
    Writing application              : mkvmerge v5.0.1 ('Es ist Sommer') built on Oct  9 2011 11:55:43
    Writing library                  : libebml v1.2.2 + libmatroska v1.3.0
    
    Video
    ID                               : 1
    Format                           : AVC
    Format/Info                      : Advanced Video Codec
    Format profile                   : [email protected]
    Format settings, CABAC           : Yes
    Format settings, ReFrames        : 3 frames
    Format settings, GOP             : M=4, N=60
    Codec ID                         : V_MPEG4/ISO/AVC
    Duration                         : xxxxx
    Bit rate mode                    : Variable
    Bit rate                         : 3 413 Kbps
    Maximum bit rate                 : 14.0 Mbps
    Width                            : 1 280 pixels
    Height                           : 720 pixels
    Display aspect ratio             : 16:9
    Frame rate                       : 59.940 fps
    Color space                      : YUV
    Chroma subsampling               : 4:2:0
    Bit depth                        : 8 bits
    Scan type                        : Progressive
    Bits/(Pixel*Frame)               : 0.062
    Stream size                      : 967 MiB (88%)
    Title                            : HBO - Julio Cesar Chavez Jr. vs. Peter Manfredo Jr (MagicPotatoes)
    Writing library                  : x264 core 116 r2074 2641b9e
    Encoding settings                : cabac=1 / ref=3 / deblock=1:0:0 / analyse=0x3:0x113 / me=hex / subme=7 / psy=1 / psy_rd=1.00:0.00 / mixed_ref=1 / me_range=16 / chroma_me=1 / trellis=1 / 8x8dct=1 / cqm=0 / deadzone=21,11 / fast_pskip=1 / chroma_qp_offset=-2 / threads=6 / sliced_threads=0 / slices=4 / nr=0 / decimate=1 / interlaced=0 / bluray_compat=1 / constrained_intra=0 / bframes=3 / b_pyramid=1 / b_adapt=1 / b_bias=0 / direct=1 / weightb=1 / open_gop=1 / weightp=1 / keyint=60 / keyint_min=6 / scenecut=40 / intra_refresh=0 / rc_lookahead=40 / rc=crf / mbtree=1 / crf=25.0 / qcomp=0.60 / qpmin=0 / qpmax=69 / qpstep=4 / vbv_maxrate=14000 / vbv_bufsize=14000 / crf_max=0.0 / nal_hrd=vbr / ip_ratio=1.40 / aq=1:1.00
    Language                         : English
    Color primaries                  : BT.709-5, BT.1361, IEC 61966-2-4, SMPTE RP177
    Transfer characteristics         : BT.709-5, BT.1361
    Matrix coefficients              : BT.709-5, BT.1361, IEC 61966-2-4 709, SMPTE RP177
    
    Audio
    ID                               : 2
    Format                           : AC-3
    Format/Info                      : Audio Coding 3
    Mode extension                   : CM (complete main)
    Codec ID                         : A_AC3
    Duration                         : xxxxx
    Bit rate mode                    : Constant
    Bit rate                         : 384 Kbps
    Channel(s)                       : 2 channels
    Channel positions                : Front: L R
    Sampling rate                    : 48.0 KHz
    Bit depth                        : 16 bits
    Compression mode                 : Lossy
    Stream size                      : 109 MiB (10%)
    Title                            : HBO - Julio Cesar Chavez Jr. vs. Peter Manfredo Jr (MagicPotatoes)
    Language                         : English

    PLEASE GUYS IF YOU WANT TO BUY PREMIUM ACCOUNTS THEN PLEASE BUY FROM MY LINKS
    THANKS





    Single Link
    Code:
    http://www.filesonic.com/file/3965992655
    FileServe
    Code:
    http://www.fileserve.com/file/cXe5Z6U/HBO.Julio.Cesar.Chavez.Jr.vs.Peter.Manfredo.Jr.part2.rar
    http://www.fileserve.com/file/keNDjd7/HBO.Julio.Cesar.Chavez.Jr.vs.Peter.Manfredo.Jr.part1.rar
    http://www.fileserve.com/file/bfrPtBN/HBO.Julio.Cesar.Chavez.Jr.vs.Peter.Manfredo.Jr.part3.rar
    FileSonic
    Code:
    http://www.filesonic.com/file/3965991155/HBO.Julio.Cesar.Chavez.Jr.vs.Peter.Manfredo.Jr.part1.rar
    http://www.filesonic.com/file/3965989955/HBO.Julio.Cesar.Chavez.Jr.vs.Peter.Manfredo.Jr.part2.rar
    http://www.filesonic.com/file/3965987385/HBO.Julio.Cesar.Chavez.Jr.vs.Peter.Manfredo.Jr.part3.rar
    Wupload
    Code:
    http://www.wupload.com/file/2532924537/HBO.Julio.Cesar.Chavez.Jr.vs.Peter.Manfredo.Jr.part1.rar
    http://www.wupload.com/file/2532925687/HBO.Julio.Cesar.Chavez.Jr.vs.Peter.Manfredo.Jr.part2.rar
    http://www.wupload.com/file/2532924487/HBO.Julio.Cesar.Chavez.Jr.vs.Peter.Manfredo.Jr.part3.rar

 

 

Posting Permissions

  • You may not post new threads
  • You may not post replies
  • You may not post attachments
  • You may not edit your posts
  •