Results 1 to 1 of 1
  1. #1
    shawn rebecca
    Guest

    Exclamation Inside.MMA.2011.03.18.HDTV.XviD-JR

    Follow us on Social Media







    Inside.MMA.2011.03.18.HDTV.XviD-JR


    General Complete name : Inside.MMA.2011.03.18.HDTV.XviD-JR.avi
    Format : AVI
    Format/Info : Audio Video Interleave
    File size : 589 MiB
    Duration : 54mn 27s
    Overall bit rate : 1 513 Kbps

    Video ID : 0
    Format : MPEG-4 Visual
    Format profile : Advanced [email protected]
    Format settings, BVOP : Yes
    Format settings, QPel : No
    Format settings, GMC : No warppoints
    Format settings, Matrix : Default (MPEG)
    Codec ID : XVID
    Codec ID/Hint : XviD
    Duration : 54mn 27s
    Bit rate : 1 307 Kbps
    Width : 624 pixels
    Height : 352 pixels
    Display aspect ratio : 16:9
    Frame rate : 29.970 fps
    Color space : YUV
    Chroma subsampling : 4:2:0
    Bit depth : 8 bits
    Scan type : Progressive
    Compression mode : Lossy
    Bits/(Pixel*Frame) : 0.199
    Stream size : 509 MiB (86%)
    Writing library : XviD 1.1.2 (UTC 2006-11-01)

    Audio ID : 1
    Format : MPEG Audio
    Format version : Version 1
    Format profile : Layer 3
    Codec ID : 55
    Codec ID/Hint : MP3
    Duration : 54mn 27s
    Bit rate mode : Constant
    Bit rate : 192 Kbps
    Channel(s) : 2 channels
    Sampling rate : 48.0 KHz
    Compression mode : Lossy
    Video delay : 33ms
    Stream size : 74.8 MiB (13%)
    Alignment : Aligned on interleaves
    Interleave, duration : 24 ms (0.72 video frame)
    Interleave, preload duration : 504 ms
    Code:
    http://www.fileserve.com/file/qC653pR/Inside.MMA.2011.03.18.HDTV.XviD-JR.avi

    YouShoot with Jamie Dundee


    One of pro wrestling's most outspoken and controversial figures takes the YouShoot oath to answer EVERYTHING you ask!

    Jamie Dundee brings out the hottest topics in the public, as this edition garnered the most participant reaction to date. Jamie does not back down one bit as he swings back at viewers, wrestlers, and just about anyone in the way!

    What STDs have you gotten?
    Most girls you boned in one night?
    What do you think of MMA?
    Tougher -- Haku or Tracy Smothers?
    "You silly hillbilly bastard"
    Randy Savage
    Miss Texas
    John Cena
    Code:
    http://www.mediafire.com/?jpf7d6k0jc7h25h

 

 

Posting Permissions

  • You may not post new threads
  • You may not post replies
  • You may not post attachments
  • You may not edit your posts
  •