Results 1 to 1 of 1
  1. #1
    shawn rebecca
    Guest

    Lightbulb Fight.News.Strikeforce.Preview.to.Fedor.vs.Silva.M P4-Dj.IcE

    Follow us on Social Media







    Fight.News.Strikeforce.Preview.to.Fedor.vs.Silva.MP4-Dj.IcE


    General
    Complete name : Fight.News.Strikeforce.Preview.to.Fedor.vs.Silva.MP4-Dj.IcE.mp4
    Format : MPEG-4
    Format profile : Base Media
    Codec ID : isom
    File size : 116 MiB
    Duration : 22mn 31s
    Overall bit rate : 719 Kbps
    Encoded date : UTC 2011-02-09 22:12:29
    Tagged date : UTC 2011-02-10 22:12:31

    Video
    ID : 1
    Format : AVC
    Format/Info : Advanced Video Codec
    Format profile : [email protected]
    Format settings, CABAC : Yes
    Format settings, ReFrames : 4 frames
    Codec ID : avc1
    Codec ID/Info : Advanced Video Coding
    Duration : 22mn 31s
    Bit rate mode : Variable
    Bit rate : 607 Kbps
    Maximum bit rate : 1 575 Kbps
    Width : 640 pixels
    Height : 480 pixels
    Display aspect ratio : 4:3
    Frame rate mode : Constant
    Frame rate : 29.970 fps
    Color space : YUV
    Chroma subsampling : 4:2:0
    Bit depth : 8 bits
    Scan type : Progressive
    Bits/(Pixel*Frame) : 0.066
    Stream size : 97.7 MiB (84%)
    Writing library : Vimeo Encoder
    Encoded date : UTC 2011-02-09 22:12:29
    Tagged date : UTC 2011-02-09 22:12:31

    Audio
    ID : 2
    Format : AAC
    Format/Info : Advanced Audio Codec
    Format profile : LC
    Codec ID : 40
    Duration : 22mn 31s
    Bit rate mode : Variable
    Bit rate : 110 Kbps
    Maximum bit rate : 224 Kbps
    Channel(s) : 2 channels
    Channel positions : Front: L R
    Sampling rate : 44.1 KHz
    Compression mode : Lossy
    Stream size : 17.7 MiB (15%)
    Encoded date : UTC 2011-02-09 22:12:30
    Tagged date : UTC 2011-02-09 22:12:31
    Code:
    http://www.fileserve.com/file/tXypev8

 

 

Posting Permissions

  • You may not post new threads
  • You may not post replies
  • You may not post attachments
  • You may not edit your posts
  •