Results 1 to 1 of 1
  1. #1
    shawn rebecca
    Guest

    Default Boxing for MMA DVD with Anderson Silva

    Follow us on Social Media







    Boxing for MMA DVD with Anderson Silva

    General
    Complete name : Boxing for MMA DVD with Anderson Silva
    Format : AVI
    Format/Info : Audio Video Interleave
    File size : 806 MiB
    Duration : 2h 6mn
    Overall bit rate : 893 Kbps
    Writing application : MEncoder Sherpya-SVN-r25088-4.2.1
    Writing library : MPlayer

    Video
    ID : 0
    Format : MPEG-4 Visual
    Format profile : [email protected]
    Format settings, BVOP : No
    Format settings, QPel : No
    Format settings, GMC : No warppoints
    Format settings, Matrix : Default (H.263)
    Codec ID : XVID
    Codec ID/Hint : XviD
    Duration : 2h 6mn
    Bit rate : 766 Kbps
    Width : 624 pixels
    Height : 352 pixels
    Display aspect ratio : 16:9
    Frame rate : 25.000 fps
    Color space : YUV
    Chroma subsampling : 4:2:0
    Bit depth : 8 bits
    Scan type : Progressive
    Compression mode : Lossy
    Bits/(Pixel*Frame) : 0.140
    Stream size : 692 MiB (86%)
    Writing library : XviD 1.1.2 (UTC 2006-11-01)

    Audio
    ID : 1
    Format : MPEG Audio
    Format version : Version 1
    Format profile : Layer 3
    Mode : Joint stereo
    Mode extension : MS Stereo
    Codec ID : 55
    Codec ID/Hint : MP3
    Duration : 2h 6mn
    Bit rate mode : Variable
    Bit rate : 112 Kbps
    Channel(s) : 2 channels
    Sampling rate : 44.1 KHz
    Compression mode : Lossy
    Stream size : 103 MiB (13%)
    Alignment : Aligned on interleaves
    Interleave, duration : 26 ms (0.65 video frame)
    Interleave, preload duration : 589 ms
    500 MB Links

    Code:
    http://www.filesonic.com/file/1052804054/Anderson Silva - Boxing for MMA_xvid.part2.rar
    http://www.filesonic.com/file/1052804094/Anderson Silva - Boxing for MMA_xvid.part1.rar
    Code:
    http://www.fileserve.com/file/28aVtXP/Anderson Silva - Boxing for MMA_xvid.part1.rar
    http://www.fileserve.com/file/xBjfWG5/Anderson Silva - Boxing for MMA_xvid.part2.rar
    ONE LINKS

    Code:
    http://www.fileserve.com/file/57TnBqc/Anderson Silva - Boxing for MMA_xvid.avi
    Code:
    http://www.filesonic.com/file/1052797374/Anderson Silva - Boxing for MMA_xvid.avi

 

 

Posting Permissions

  • You may not post new threads
  • You may not post replies
  • You may not post attachments
  • You may not edit your posts
  •