Results 1 to 1 of 1
  1. #1
    Super Member www.desirulez.net
    Join Date
    Apr 2010
    Posts
    110

    T

    Default Tum Milo To Sahi (2010) - 1CD - DVD-Rip - XviD - SUBS

    Follow us on Social Media










    Height : 256 pixels
    Display aspect ratio : 2.35:1
    Frame rate : 29.970 fps
    Resolution : 8 bits
    Colorimetry : 4:2:0
    Scan type : Progressive
    Bits/(Pixel*Frame) : 0.148
    Stream size : 632 MiB (90%)
    Writing library : XviD 1.2.1 (UTC 2008-12-04)

    Audio
    ID : 1
    Format : MPEG Audio
    Format version : Version 2
    Format profile : Layer 3
    Mode : Joint stereo
    Format_Settings_ModeExtension : MS Stereo
    Codec ID : 55
    Codec ID/Hint : MP3
    Duration : 2h 8mn
    Bit rate mode : Constant
    Bit rate : 64.0 Kbps
    Channel(s) : 2 channels
    Sampling rate : 24.0 KHz
    Stream size : 58.7 MiB (8%)
    Alignment : Aligned on interleaves
    Interleave, duration : 33 ms (1.00 video frame)
    Interleave, preload duration : 504 ms
    Writing library : LAME3.98r
    Encoding settings : -m j -V 4 -q 2 -lowpass 11 -b 64

    Sample : Download sample.avi from Sendspace.com - send big files the easy way

    English & Arabic subs






    Code:
    http://hotfile.com/dl/41578064/98e8fcb/Tum.Milo.To.Sahi.1Cd.DvdRip.XviD.avi.001.html
    http://hotfile.com/dl/41578262/71d98ed/Tum.Milo.To.Sahi.1Cd.DvdRip.XviD.avi.002.html
    http://hotfile.com/dl/41578448/afeb77f/Tum.Milo.To.Sahi.1Cd.DvdRip.XviD.avi.003.html
    http://hotfile.com/dl/41578605/0135b4c/Tum.Milo.To.Sahi.1Cd.DvdRip.XviD.avi.004.html
    Code:
    http://hotfile.com/dl/41579260/e39ad4a/Tum.Milo.To.Sahi.1Cd.DvdRip.XviD.srt.html
    ________
    AVANDIA CLASS ACTION
    Last edited by kumar141; 08-21-2011 at 01:04 AM.

 

 

Posting Permissions

  • You may not post new threads
  • You may not post replies
  • You may not post attachments
  • You may not edit your posts
  •