Results 1 to 2 of 2
  1. #1
    Runner Up - Admins Awards www.desirulez.net
    Join Date
    Dec 2009
    Posts
    24,894

    T

    Default Ultraviolet(2006)=[HD Rip][DUAL AUDIO][ENG-HINDI]

    Follow us on Social Media







    Ultraviolet(2006)[HD Rip][DUAL AUDIO][ENG-HINDI]







    Code:
    IMDB:
    http://www.imdb.com/title/tt0370032/
    
    General
    Complete name : Ultraviolet[HDRip] [Dual-Audio] [Eng-Hindi][TDT-RedHeart].mkv
    Format : Matroska
    File size : 791 MiB
    Duration : 1h 19mn
    Overall bit rate : 1 384 Kbps
    Encoded date : UTC 2010-04-21 18:54:52
    Writing application : mkvmerge v3.2.0 ('Beginnings') built on Feb 12 2010 16:46:17
    Writing library : libebml v0.7.9 + libmatroska v0.8.1
    
    Video
    ID : 1
    Format : MPEG-4 Visual
    Format profile : Advanced [email protected]
    Format settings, BVOP : Yes
    Format settings, QPel : No
    Format settings, GMC : No warppoints
    Format settings, Matrix : Default (MPEG)
    Codec ID : XVID
    Codec ID/Hint : XviD
    Duration : 1h 19mn
    Bit rate : 1 100 Kbps
    Width : 592 pixels
    Height : 320 pixels
    Display aspect ratio : 1.850
    Frame rate : 25.000 fps
    Resolution : 8 bits
    Colorimetry : 4:2:0
    Scan type : Progressive
    Bits/(Pixel*Frame) : 0.232
    Stream size : 629 MiB (80%)
    Writing library : XviD 1.2.0.dev47 (UTC 2006-11-01)
    Language : English
    
    Audio #1
    ID : 2
    Format : AC-3
    Format/Info : Audio Coding 3
    Codec ID : A_AC3
    Duration : 1h 19mn
    Bit rate mode : Constant
    Bit rate : 128 Kbps
    Channel(s) : 2 channels
    Channel positions : L R
    Sampling rate : 48.0 KHz
    Stream size : 73.2 MiB (9%)
    Language : English
    
    Audio #2
    ID : 3
    Format : MPEG Audio
    Format version : Version 1
    Format profile : Layer 3
    Mode : Joint stereo
    Format_Settings_ModeExtension : MS Stereo
    Codec ID : A_MPEG/L3
    Codec ID/Hint : MP3
    Duration : 1h 19mn
    Bit rate mode : Constant
    Bit rate : 128 Kbps
    Channel(s) : 2 channels
    Sampling rate : 48.0 KHz
    Stream size : 73.2 MiB (9%)
    Writing library : LAME3.96
    Language : Hind
    i
















    Code:
    http://cramit.in/lvr488ueowm7/Ultraviolet.HDRip.Hindi_Eng.mkv

  2. #2
    Administrators www.desirulez.net
    Join Date
    Mar 2010
    Location
    Sea Side
    Posts
    9,872

    T

    Default

    wow singal link

 

 

Posting Permissions

  • You may not post new threads
  • You may not post replies
  • You may not post attachments
  • You may not edit your posts
  •