Results 1 to 2 of 2
  1. #1
    Runner Up - Admins Awards www.desirulez.net
    Join Date
    Dec 2009
    Posts
    24,894

    T

    Default Elizabethtown(2005) [HD Rip] [Hindi]

    Follow us on Social Media







    Elizabethtown(2005)|HD Rip|Hindi[/COLOR]














    Code:
    General
    Complete name : Elizabethtown (2005) HDRIP 673 MB .mkv
    Format : Matroska
    File size : 673 MiB
    Duration : 1h 58mn
    Overall bit rate : 794 Kbps
    
    Video Source :- English HD dvdrip
    Audio Source - Hindi Dvdrip
    
    
    Video
    ID : 1
    Format : MPEG-4 Visual
    Format profile : Advanced [email protected]
    Format settings, BVOP : Yes
    Format settings, QPel : No
    Format settings, GMC : No warppoints
    Format settings, Matrix : Default (H.263)
    Codec ID : XVID
    Codec ID/Hint : XviD
    Duration : 1h 58mn
    Bit rate : 650 Kbps
    Width : 608 pixels
    Height : 336 pixels
    Display aspect ratio : 16:9
    Frame rate : 25.000 fps
    Original frame rate : 23.976 fps
    Resolution : 8 bits
    Colorimetry : 4:2:0
    Scan type : Progressive
    Bits/(Pixel*Frame) : 0.127
    Stream size : 551 MiB (82%)
    Writing library : XviD 1.1.0 (UTC 2005-11-22)
    
    Audio
    ID : 2
    Format : MPEG Audio
    Format version : Version 1
    Format profile : Layer 3
    Codec ID : A_MPEG/L3
    Codec ID/Hint : MP3
    Duration : 1h 58mn
    Bit rate mode : Constant
    Bit rate : 128 Kbps
    Channel(s) : 2 channels
    Sampling rate : 48.0 KHz
    Video delay : 1s 500ms
    Stream size : 109 MiB (16%)



    Code:
    http://cramit.in/1chhhzmvkh00/Elizabethtown.HDRip.Hindi.mkv

  2. #2
    Administrators www.desirulez.net
    Join Date
    Mar 2010
    Location
    Sea Side
    Posts
    9,872

    T

    Default

    wow singal link

 

 

Posting Permissions

  • You may not post new threads
  • You may not post replies
  • You may not post attachments
  • You may not edit your posts
  •