Results 1 to 1 of 1
  1. #1
    dR Force!!! www.desirulez.net
    Join Date
    Mar 2010
    Location
    Sea Side
    Posts
    9,872

    Default The 13th Day-An Untold Truth dvd rip

    Follow us on Social Media



























    Code:
    Complete name : The 13th Day-DVDRiP-Exclusive-Jack Sparrow.mp4
    Format                           : MPEG-4
    Format profile                   : Base Media
    Codec ID                         : isom
    File size                        : 1.67 GiB
    Duration                         : 1h 5mn
    Overall bit rate                 : 3 659 Kbps
    Encoded date                     : UTC 2010-04-21 11:56:12
    Tagged date                      : UTC 2010-04-21 11:56:12
    
    Video
    ID                               : 1
    Format                           : AVC
    Format/Info                      : Advanced Video Codec
    Format profile                   : [email protected]
    Format settings, CABAC           : No
    Format settings, ReFrames        : 1 frame
    Codec ID                         : avc1
    Codec ID/Info                    : Advanced Video Coding
    Duration                         : 1h 5mn
    Bit rate mode                    : Variable
    Bit rate                         : 3 499 Kbps
    Width                            : 720 pixels
    Height                           : 360 pixels
    Display aspect ratio             : 2.000
    Frame rate mode                  : Constant
    Frame rate                       : 25.000 fps
    Standard                         : PAL
    Resolution                       : 8 bits
    Colorimetry                      : 4:2:0
    Scan type                        : Progressive
    Bits/(Pixel*Frame)               : 0.540
    Stream size                      : 1.60 GiB (96%)
    Language                         : English
    Encoded date                     : UTC 2010-04-21 11:56:12
    Tagged date                      : UTC 2010-04-21 11:56:12
    
    Audio
    ID                               : 2
    Format                           : AAC
    Format/Info                      : Advanced Audio Codec
    Format version                   : Version 4
    Format profile                   : LC
    Format settings, SBR             : No
    Codec ID                         : 40
    Duration                         : 1h 5mn
    Bit rate mode                    : Constant
    Bit rate                         : 159 Kbps
    Channel(s)                       : 2 channels
    Channel positions                : Front: L R
    Sampling rate                    : 48.0 KHz
    Stream size                      : 74.4 MiB (4%)
    Language                         : English
    Encoded date                     : UTC 2010-04-21 11:56:12
    Tagged date                      : UTC 2010-04-21 11:56:12










    Code:
    http://rapidshare.com/files/37962955...parrow.mp4.001
    http://rapidshare.com/files/37962944...parrow.mp4.002
    http://rapidshare.com/files/37962991...parrow.mp4.003
    http://rapidshare.com/files/37962967...parrow.mp4.004
    http://rapidshare.com/files/37962985...parrow.mp4.005
    http://rapidshare.com/files/37962988...parrow.mp4.006
    http://rapidshare.com/files/37962950...parrow.mp4.007
    http://rapidshare.com/files/37962968...parrow.mp4.008
    http://rapidshare.com/files/37962999...parrow.mp4.009
    http://rapidshare.com/files/37962918...parrow.mp4.010
    __________________

 

 

Posting Permissions

  • You may not post new threads
  • You may not post replies
  • You may not post attachments
  • You may not edit your posts
  •