Results 1 to 1 of 1
  1. #1
    dR Contributor www.desirulez.net
    Join Date
    Sep 2009
    Posts
    305

    T

    Default Jab Pyar Kisise Hota Hai [1998] 1CD OrignalDVDRip XviD AAC

    Follow us on Social Media











    Jab Pyar Kisise Hota Hai [1998] 1CD OrignalDVDRip XviD AAC











    Cast:
    Twinkle Khanna, Salman Khan, Johny Lever, Aditya Narayan, Saeed Jaffrey, Farida Jalal, Anupam Kher, Himani Shivpuri, Namrata Shirodkar, Harish Patel


    Crew

    Assistant Director:
    Abhijeet Sengupta
    Cinematographer:
    Manmohan Singh
    Publicity Designer:
    Himanshu Nanda, Rahul Nanda
    Story Writer:
    Honey Irani
    Costume Designer:
    Manish Malhotra, Shabina Khan, Simple Kapadia
    Production Executives:
    Yogesh Lakhani
    Director:
    Deepak Sareen
    Producer:
    Ramesh S. Taurani, Kumar S. Taurani

    Music
    Music Director:
    Jatin-Lalit
    Playback Singer:
    Sonu Nigam, Alka Yagnik, Kumar Sanu, Udit Narayan, Lata Mangeshkar
    Background Sound:
    Babloo Chakravarthy
    Lyricist:
    Anand Bakshi


































    Code:
    
    
    .. K i n g o f M o v i e   ..   P r a u d l e y p r e g a n t s ...
    
    General
    Name                             : Jab Pyar Kisise Hota Hai
    Format                           : MPEG-4
    Format profile                   : Base Media
    Codec ID                         : isom
    File size                        : 696 MiB
    Duration                         : 2h 41mn
    Overall bit rate                 : 603 Kbps
    
    
    Video
    ID                               : 1
    Format                           : AVC
    Format/Info                      : Advanced Video Codec
    Format profile                   : [email protected]
    Format settings, CABAC           : Yes
    Format settings, ReFrames        : 5 frames
    Codec ID                         : avc1
    Codec ID/Info                    : Advanced Video Coding
    Duration                         : 2h 41mn
    Bit rate mode                    : Variable
    Bit rate                         : 537 Kbps
    Maximum bit rate                 : 2 760 Kbps
    Width                            : 592 pixels
    Height                           : 304 pixels
    Display aspect ratio             : 1.947
    Frame rate mode                  : Constant
    Frame rate                       : 23.976 fps
    Resolution                       : 8 bits
    Colorimetry                      : 4:2:0
    Scan type                        : Progressive
    Bits/(Pixel*Frame)               : 0.124
    Stream size                      : 619 MiB (89%)
    Title                            : Imported with GPAC 0.4.6-DEV (build 1)
    Writing library                  : x264 core 80 r1376M 3feaec2
    
    
    Audio
    ID                               : 2
    Format                           : AAC
    Format/Info                      : Advanced Audio Codec
    Format version                   : Version 4
    Format profile                   : LC
    Format settings, SBR             : Yes
    Format settings, PS              : No
    Codec ID                         : 40
    Duration                         : 2h 41mn
    Bit rate mode                    : Variable
    Bit rate                         : 64.0 Kbps
    Maximum bit rate                 : 69.4 Kbps
    Channel(s)                       : 2 channels
    Channel positions                : L R
    Sampling rate                    : 48.0 KHz
    Stream size                      : 73.9 MiB (11%)
    
    
    Source                           : DVD
    Ripper                           : Nordmariner
    
     
                                                                      
    

    Credit To Orignal Ripper snaink

















    Code:
     
    http://uploading.com/files/8a3d8874/Jab.Pyar.Kisise.Hota.Hai.1998.1.CD.OrignalDvdRip.Xvid.ACC.King.Of.Movie.mp4.001/ 
    http://uploading.com/files/48631bd1/Jab.Pyar.Kisise.Hota.Hai.1998.1.CD.OrignalDvdRip.Xvid.ACC.King.Of.Movie.mp4.002/ 
    http://uploading.com/files/82d8e18e/Jab.Pyar.Kisise.Hota.Hai.1998.1.CD.OrignalDvdRip.Xvid.ACC.King.Of.Movie.mp4.003/ 
    http://uploading.com/files/79e421a4/Jab.Pyar.Kisise.Hota.Hai.1998.1.CD.OrignalDvdRip.Xvid.ACC.King.Of.Movie.mp4.004/ 
    http://uploading.com/files/789d83f1/Jab.Pyar.Kisise.Hota.Hai.1998.1.CD.OrignalDvdRip.Xvid.ACC.King.Of.Movie.mp4.005/




    Code:
    http://www.sharingmatrix.com/file/3321382/Jab.Pyar.Kisise.Hota.Hai.1998.1.CD.OrignalDvdRip.Xvid.ACC.King.Of.Movie.mp4.005
    http://www.sharingmatrix.com/file/3321378/Jab.Pyar.Kisise.Hota.Hai.1998.1.CD.OrignalDvdRip.Xvid.ACC.King.Of.Movie.mp4.004
    http://www.sharingmatrix.com/file/3321376/Jab.Pyar.Kisise.Hota.Hai.1998.1.CD.OrignalDvdRip.Xvid.ACC.King.Of.Movie.mp4.003
    http://www.sharingmatrix.com/file/3321374/Jab.Pyar.Kisise.Hota.Hai.1998.1.CD.OrignalDvdRip.Xvid.ACC.King.Of.Movie.mp4.002
    http://www.sharingmatrix.com/file/3321372/Jab.Pyar.Kisise.Hota.Hai.1998.1.CD.OrignalDvdRip.Xvid.ACC.King.Of.Movie.mp4.001



    Code:
     
    
    http://hotfile.com/dl/37419932/352c8c2/Jab.Pyar.Kisise.Hota.Hai.1998.1.CD.OrignalDvdRip.Xvid.ACC.King.Of.Movie.mp4.001.html
    http://hotfile.com/dl/37421255/db2d820/Jab.Pyar.Kisise.Hota.Hai.1998.1.CD.OrignalDvdRip.Xvid.ACC.King.Of.Movie.mp4.002.html
    http://hotfile.com/dl/37422597/6b70232/Jab.Pyar.Kisise.Hota.Hai.1998.1.CD.OrignalDvdRip.Xvid.ACC.King.Of.Movie.mp4.003.html
    http://hotfile.com/dl/37424227/ee3dd94/Jab.Pyar.Kisise.Hota.Hai.1998.1.CD.OrignalDvdRip.Xvid.ACC.King.Of.Movie.mp4.004.html
    http://hotfile.com/dl/37425385/1f0e02b/Jab.Pyar.Kisise.Hota.Hai.1998.1.CD.OrignalDvdRip.Xvid.ACC.King.Of.Movie.mp4.005.html



    Use HjSplit to Join the above files.
    Code:
    http://hotfile.com/dl/36705783/1711ca4/hjsplit.exe.html


 

 

Posting Permissions

  • You may not post new threads
  • You may not post replies
  • You may not post attachments
  • You may not edit your posts
  •