Results 1 to 2 of 2
  1. #1
    dR Contributor www.desirulez.net
    Join Date
    Sep 2009
    Posts
    305

    T

    Default Hum Tum Aur Ghost - 2010 1CD DVDCR-RIP XviD ESub

    Follow us on Social Media











    Hum Tum Aur Ghost - 2010 1CD DVDCR-RIP XviD ESub











    Also known as (AKA) / Was earlier titled
    Earlier Titled as Kaun Bola?

    Banner
    The Indian Film Company
    Studio 18
    Shooting Stars Productions

    Status
    Released

    Color
    C

    Release Date
    March 26, 2010

    Language
    Hindi

    Genre
    Comedy

    Producer
    Arshad Warsi
    Maria Goretti

    Director
    Kabeer Kaushik

    Star Cast
    Arshad Warsi...... Armaan Suri
    Dia Mirza...... Gehna
    Sandhya Mridul...... Mini
    Boman Irani...... Mr. Kapoor
    Zehra Naqvi...... Carol
    Shernaz Patel
    Tinu Anand
    Javed Sheikh
    Asawari Joshi
    Rituraj Singh
    Ashwin Kumar
    Neelu Kohli

    Cassettes and CD's on
    T-Series

    Singers
    K K
    Shreya Ghoshal
    Shankar Mahadevan
    Vishal Dadlani
    Arun Ingle
    Shaan
    Sunidhi Chauhan
    Maria Goretti
    Loy Mendonca
    Raman Mahadevan
    Anousha Mani
    Rahul Saxena
    Caralisa Monteiro
    Dominique Cerejo
    Clinton Cerejo

    Lyricist
    Javed Akhtar

    Music Director
    Shankar Mahadevan
    Ehsaan Noorani
    Loy Mendonca

    Background Music
    Julius Packiam

    Cinematography
    Ashok Mehta

    Choreography
    Remo D'Souza
    Ahmed Khan

    Action
    Jai Singh

    Editor
    Steven H. Bernard

    Screenplay
    Arshad Warsi
    Arshad Ali Syed
    Soumik Sen

    Sound
    Rakesh Ranjan

    Dialogue
    Arshad Warsi
    Arshad Ali Syed
    Soumik Sen

    Media Relations
    Parull Gossain

    Publicity Designs
    Marching Ants

    Story / Writer
    Arshad Warsi
    Arshad Ali Syed
    Soumik Sen


















    More Screens Links

    Code:
    http://img153.imageshack.us/img153/2415/snapshot20100405185510.jpg
    http://img256.imageshack.us/img256/8703/snapshot20100405185322.jpg
    http://img255.imageshack.us/img255/3577/snapshot20100405185055.jpg
    http://img251.imageshack.us/img251/3457/snapshot20100405184924.jpg
    http://img687.imageshack.us/img687/2222/snapshot20100405184812.jpg
    http://img6.imageshack.us/img6/3788/snapshot20100405190336.jpg
    http://img144.imageshack.us/img144/2840/snapshot20100405190425.jpg
    http://img215.imageshack.us/img215/1616/snapshot20100405190111.jpg
    http://img180.imageshack.us/img180/8338/snapshot20100405185352.jpg

    Code:
    
    
    .. K i n g o f M o v i e   ..   P r a u d l e y p r e g a n t s ..
    
    
    General
    
    
    
    Format                           : AVI
    Format/Info                      : Audio Video Interleave
    Format profile                   : OpenDML
    File size                        : 681 MiB
    Duration                         : 2h 0mn
    Overall bit rate                 : 789 Kbps
    Writing application              : AVI-Mux GUI 1.17.8.3, Feb 16 201019:42:50
    
    Video
    ID                               : 0
    Format                           : MPEG-4 Visual
    Format profile                   : [email protected]
    Format settings, BVOP            : Yes
    Format settings, QPel            : No
    Format settings, GMC             : No warppoints
    Format settings, Matrix          : Default (H.263)
    Codec ID                         : XVID
    Codec ID/Hint                    : XviD
    Duration                         : 2h 0mn
    Bit rate                         : 686 Kbps
    Width                            : 640 pixels
    Height                           : 288 pixels
    Display aspect ratio             : 2.222
    Frame rate                       : 23.976 fps
    Resolution                       : 24 bits
    Colorimetry                      : 4:2:0
    Scan type                        : Progressive
    Bits/(Pixel*Frame)               : 0.155
    Stream size                      : 592 MiB (87%)
    Writing library                  : XviD 1.2.1 (UTC 2008-12-04)
    
    Audio
    ID                               : 1
    Format                           : MPEG Audio
    Format version                   : Version 1
    Format profile                   : Layer 3
    Format_Settings_Mode             : Joint stereo / MS Stereo
    Codec ID                         : 55
    Codec ID/Hint                    : MP3
    Duration                         : 2h 0mn
    Bit rate mode                    : Variable
    Bit rate                         : 95.0 Kbps
    Nominal bit rate                 : 112 Kbps
    Channel(s)                       : 2 channels
    Sampling rate                    : 44.1 KHz
    Resolution                       : 16 bits
    Stream size                      : 82.0 MiB (12%)
    Alignment                        : Aligned on interleaves
    Interleave, duration             : 26 ms (0.63 video frame)
    Interleave, preload duration     : 219 ms
    Title                            : VTS_01_1 T80 2_0ch 192Kbps DELAY 0ms
    Writing library                  : LAME3.98r
    Encoding settings                : -m j -V 4 -q 2 -lowpass 15.6 --abr 112
    
    
    
    

    Credit To Ripper IcTv










    Code:
    http://hotfile.com/dl/36556652/e625f31/H.T.A.Ghost.DvDCR.Rip.1.Cd.RIP.XviD.King.Of.Movie.avi.001.html
    http://hotfile.com/dl/36556807/43ead3d/H.T.A.Ghost.DvDCR.Rip.1.Cd.RIP.XviD.King.Of.Movie.avi.002.html
    http://hotfile.com/dl/36556858/baf7f9a/H.T.A.Ghost.DvDCR.Rip.1.Cd.RIP.XviD.King.Of.Movie.avi.003.html
    http://hotfile.com/dl/36557019/40405ba/H.T.A.Ghost.DvDCR.Rip.1.Cd.RIP.XviD.King.Of.Movie.avi.004.html
    http://hotfile.com/dl/36557020/5efc2f4/H.T.A.Ghost.DvDCR.Rip.1.Cd.RIP.XviD.King.Of.Movie.avi.005.html
    
    
    http://hotfile.com/dl/36557215/6820dd2/H.T.A.Ghost.DvDCR.Rip.1.Cd.RIP.XviD.King.Of.Movie.idx.html
    http://hotfile.com/dl/36557218/2ecda4d/H.T.A.Ghost.DvDCR.Rip.1.Cd.RIP.XviD.King.Of.Movie.sub.html
    Uploading

    Code:
    http://uploading.com/files/1352c868/H.T.A.Ghost.DvDCR.Rip.1.Cd.RIP.XviD.King.Of.Movie.avi.001
    http://uploading.com/files/92fm67dm/H.T.A.Ghost.DvDCR.Rip.1.Cd.RIP.XviD.King.Of.Movie.avi.002
    http://uploading.com/files/fc43a3be/H.T.A.Ghost.DvDCR.Rip.1.Cd.RIP.XviD.King.Of.Movie.avi.003
    http://uploading.com/files/21a46m54/H.T.A.Ghost.DvDCR.Rip.1.Cd.RIP.XviD.King.Of.Movie.avi.004
    http://uploading.com/files/f45m654a/H.T.A.Ghost.DvDCR.Rip.1.Cd.RIP.XviD.King.Of.Movie.avi.005
    
    http://uploading.com/files/d61439d1/H.T.A.Ghost.DvDCR.Rip.1.Cd.RIP.XviD.King.Of.Movie.idx
    http://uploading.com/files/782bbmdf/H.T.A.Ghost.DvDCR.Rip.1.Cd.RIP.XviD.King.Of.Movie.sub
    Sharecash

    Code:
    http://sharecash.org/download.php?file=590203
    http://sharecash.org/download.php?file=590204
    http://sharecash.org/download.php?file=590207
    http://sharecash.org/download.php?file=590209
    http://sharecash.org/download.php?file=590212
    
    
    
    http://sharecash.org/download.php?file=590211

    Code:
    http://www.sharingmatrix.com/file/3163379/H.T.A.Ghost.DvDCR.Rip.1.Cd.RIP.XviD.King.Of.Movie.avi.001
    http://www.sharingmatrix.com/file/3163381/H.T.A.Ghost.DvDCR.Rip.1.Cd.RIP.XviD.King.Of.Movie.avi.002
    http://www.sharingmatrix.com/file/3163383/H.T.A.Ghost.DvDCR.Rip.1.Cd.RIP.XviD.King.Of.Movie.avi.003
    http://www.sharingmatrix.com/file/3163385/H.T.A.Ghost.DvDCR.Rip.1.Cd.RIP.XviD.King.Of.Movie.avi.004
    http://www.sharingmatrix.com/file/3163389/H.T.A.Ghost.DvDCR.Rip.1.Cd.RIP.XviD.King.Of.Movie.avi.005
    
    
    http://www.sharingmatrix.com/file/3163391/H.T.A.Ghost.DvDCR.Rip.1.Cd.RIP.XviD.King.Of.Movie.idx
    http://www.sharingmatrix.com/file/3163393/H.T.A.Ghost.DvDCR.Rip.1.Cd.RIP.XviD.King.Of.Movie.sub


    Use HjSplit to Join the above files.
    Code:
    http://uploading.com/files/86da949m/hjsplit.exe

  2. #2
    Administrators www.desirulez.net
    Join Date
    Mar 2010
    Location
    Sea Side
    Posts
    9,872

    T

    Default

    nice one i saw the movies is good nice to

 

 

Posting Permissions

  • You may not post new threads
  • You may not post replies
  • You may not post attachments
  • You may not edit your posts
  •