Results 1 to 2 of 2
  1. #1
    dR Contributor www.desirulez.net
    Join Date
    Sep 2009
    Posts
    306

    Default Ishqiya *2010* 1 Cd PDvD RIP XviD Full.Runtime New Source First On Net

    Follow us on Social Media









    Ishqiya *2010* 1 Cd PDvD RIP XviD Full.Runtime New Source First On Net
















    Wild Screen Wallpapers Click To Enlarge







    Banner
    Shemaroo Entertainment
    Vishal Bhardwaj Pictures Pvt Ltd

    Status
    Released

    Color
    C

    Release Date
    January 29, 2010

    Language
    Hindi

    Genre
    Crime / Romance

    Producer
    Vishal Bhardwaj
    Raman Maroo

    Executive Producer / Co-Producer
    Rekha Bhardwaj
    Ketan Maroo
    Mansi Maroo

    Director
    Abhishek Chaubhey

    Star Cast
    Naseruddin Shah...... Khalujan
    Arshad Warsi...... Babban
    Vidya Balan...... Krishna Verma
    Salman Shahid
    Rajesh Sharma

    Cassettes and CD's on
    T-Series

    Singers
    Rahat Fateh Ali Khan
    Sukhwinder Singh
    Mika Singh
    Rekha Bhardwaj
    Clinton Cerejo

    Lyricist
    Gulzar
    Ajinkya Iyer

    Music Director
    Vishal Bhardwaj

    Cinematography
    Mohana Krishna

    Action
    Jai Singh

    Editor
    Namrata Rao

    Screenplay
    Vishal Bhardwaj
    Sabrina Dhawan
    Abhishek Chaubhey

    Sound
    Kaamod Kharade
    P M Satheesh
    Shajith Koyeri

    Dialogue
    Vishal Bhardwaj

    Costume
    Payal Saluja

    Media Relations
    Parull Gossain

    Promos
    Ravi Padda
    Binni Padda

    Publicity Designs
    Marching Ants

















    Code:
    
    
    
    .. K i n g o f M o v i e   ..   P r a u d l e y p r e g a n t s ..
    
    Format                           : AVI
    Format/Info                      : Audio Video Interleave
    File size                        : 691 MiB
    Duration                         : 2h 37mn
    Overall bit rate                 : 615 Kbps
    Writing application              : VirtualDubMod 1.5.10.2 (build 2540/release)
    Writing library                  : VirtualDubMod build 2540/release
    
    Video
    ID                               : 0
    Format                           : MPEG-4 Visual
    Format profile                   : [email protected]
    Format settings, BVOP            : Yes
    Format settings, QPel            : No
    Format settings, GMC             : No warppoints
    Format settings, Matrix          : Custom
    Codec ID                         : XVID
    Codec ID/Hint                    : XviD
    Duration                         : 2h 37mn
    Bit rate                         : 502 Kbps
    Width                            : 608 pixels
    Height                           : 256 pixels
    Display aspect ratio             : 2.35:1
    Frame rate                       : 23.976 fps
    Resolution                       : 24 bits
    Colorimetry                      : 4:2:0
    Scan type                        : Progressive
    Bits/(Pixel*Frame)               : 0.134
    Stream size                      : 563 MiB (82%)
    Writing library                  : XviD 1.2.1 (UTC 2008-12-04)
    
    Audio
    ID                               : 1
    Format                           : MPEG Audio
    Format version                   : Version 2
    Format profile                   : Layer 3
    Format_Settings_Mode             : Joint stereo / Intensity Stereo
    Codec ID                         : 55
    Codec ID/Hint                    : MP3
    Duration                         : 2h 37mn
    Bit rate mode                    : Constant
    Bit rate                         : 80.0 Kbps
    Channel(s)                       : 2 channels
    Sampling rate                    : 24.0 KHz
    Resolution                       : 16 bits
    Stream size                      : 89.9 MiB (13%)
    Alignment                        : Aligned on interleaves 
    
    
    
    
    
     
                                                                                   
    
    

    Credit To Ripper















    Code:
    http://rapidshare.com/files/343310249/King.Of.Movie.is.New.2010.1CD.PDVDRip.XviD..avi.001
    http://rapidshare.com/files/343315932/King.Of.Movie.is.New.2010.1CD.PDVDRip.XviD..avi.002
    http://rapidshare.com/files/343316258/King.Of.Movie.is.New.2010.1CD.PDVDRip.XviD..avi.003
    http://rapidshare.com/files/343315851/King.Of.Movie.is.New.2010.1CD.PDVDRip.XviD..avi.004
    http://rapidshare.com/files/343311660/King.Of.Movie.is.New.2010.1CD.PDVDRip.XviD..avi.005
    http://rapidshare.com/files/343310773/King.Of.Movie.is.New.2010.1CD.PDVDRip.XviD..avi.006
    http://rapidshare.com/files/343314713/King.Of.Movie.is.New.2010.1CD.PDVDRip.XviD..avi.007
    Use HjSplit to Join the above files.
    Code:
    http://www.easy-share.com/1908557781/hjsplit.exe
    Last edited by King Of Movie; 01-30-2010 at 04:32 PM.

  2. #2

    Default

    wow what a great quality

 

 

Posting Permissions

  • You may not post new threads
  • You may not post replies
  • You may not post attachments
  • You may not edit your posts
  •