Results 1 to 2 of 2
  1. #1

    Default Maga Pack HEVC Hindi Music Vidoes Bluray 1080 x265 DTS Vol 4...Team Telly

    Follow us on Social Media







    Music Video Tracklist:



    Media Information:



    Format : Matroska
    Format version : Version 4 / Version 2
    File size : 320 MiB
    Duration : 9mn 8s
    Overall bit rate : 4 887 Kbps
    Movie name : RSY Team Telly


    Video
    ID : 1
    Format : HEVC
    Format/Info : High Efficiency Video Coding
    Codec ID : V_MPEGH/ISO/HEVC
    Duration : 9mn 8s
    Bit rate : 4 021 Kbps
    Width : 1 920 pixels
    Height : 816 pixels
    Display aspect ratio : 2.35:1
    Frame rate mode : Constant
    Frame rate : 24.000 fps
    Bits/(Pixel*Frame) : 0.107
    Stream size : 263 MiB (82%)
    Title : RSY Team Telly
    Default : Yes
    Forced : No

    Audio
    ID : 2
    Format : DTS
    Format/Info : Digital Theater Systems
    Mode : 16
    Format settings, Endianness : Big
    Codec ID : A_DTS
    Duration : 9mn 8s
    Bit rate mode : Constant
    Bit rate : 1 509 Kbps
    Channel(s) : 6 channels
    Channel positions : Front: L C R, Side: L R, LFE
    Sampling rate : 48.0 KHz
    Bit depth : 16 bits
    Compression mode : Lossy
    Stream size : 50.2 MiB (16%)
    Title : RSY Team Telly
    Default : Yes
    Forced : No



    Screenshot:



















    Code:
    http://strongupload.com/6cw/3_idiots___Aal_Izz_Well.mkv
    http://strongupload.com/6cx/3_idiots_Behti_Hawa_Sa_Tha_Woh.mkv
    http://strongupload.com/6cy/3_idiots_Give_Me_Some_Sunshine.mkv
    http://strongupload.com/6cz/3_idiots_Jaane_Nahin_Denge.mkv
    http://strongupload.com/8NS/3_idiots_Zoobi_Doobi.mkv
    http://strongupload.com/8NT/Aashiqui_1990_---__Bus_Ek_Saman_Chhiya.mkv
    http://strongupload.com/8NU/Aashiqui_1990_---__Dheere_Dheere_Se.mkv
    http://strongupload.com/8NV/Aashiqui_1990_---__Ek_Sanam_Chahiye_Aashiqui_Ke_Liye.mkv
    http://strongupload.com/8NW/Aashiqui_1990_---__Jaan_E_Jigar_Jaaneman.mkv
    http://strongupload.com/8NX/Aashiqui_1990_---__Main_Duniya_Bhula_Doonga.mkv
    http://strongupload.com/8NY/Aashiqui_1990_---__Mera_Dil_Tere_Liye.mkv
    http://strongupload.com/8NZ/Aashiqui_1990_---__Nazar_Ke_Samne.mkv
    http://strongupload.com/8O0/Aashiqui_1990_---__Tu_Meri_Zindagi_Hai.mkv
    http://strongupload.com/8O1/Aashiqui_1990_---_Ab_Tere_Bin_Jee_Lenge_Hum.mkv
    http://strongupload.com/8O2/Jab_Tak_Hai_Jaan_---Challa.mkv
    http://strongupload.com/8O3/Jab_Tak_Hai_Jaan_---Ishq_Shava.mkv
    http://strongupload.com/8O4/Jab_Tak_Hai_Jaan_---Jiya_Re.mkv
    http://strongupload.com/8O5/Jab_Tak_Hai_Jaan_---Saans.mkv
    http://strongupload.com/8O6/Mohabbatein---Ankhen_Khuli_Ho_Ya_To.mkv
    http://strongupload.com/8O7/Mohabbatein---Chalte_Chalte_Yuhi.mkv
    http://strongupload.com/8O8/Mohabbatein---Humko_Hami_Se_Chura_Lo.mkv
    http://strongupload.com/8O9/Mohabbatein---Pairo_Mein_Bandan_Hai.mkv
    http://strongupload.com/8Oa/Mohabbatein---Soni_Soni_Ankhiyon_Wali.mkv
    http://strongupload.com/8Ob/Rab_Ne_Bana_Di_Jodi_---Dance_Pe_Chance.mkv
    http://strongupload.com/8Oc/Rab_Ne_Bana_Di_Jodi_---Dancing_Jodi__Instrumental.mkv
    http://strongupload.com/8Od/Rab_Ne_Bana_Di_Jodi_---Haule_Haule.mkv
    http://strongupload.com/8Oe/Rab_Ne_Bana_Di_Jodi_---Phir_Milenge_Chalte_Chalte.mkv
    http://strongupload.com/8Of/Rab_Ne_Bana_Di_Jodi_---Tujh_Mein_Rab_Dikhta_Hai.mkv
    http://strongupload.com/8Og/Swades---Pal_Pal_Hai_Bhari.mkv
    http://strongupload.com/8Oh/Swades---Sanwariya_Sanwariya.mkv
    http://strongupload.com/6d0/Swades---Yeh_Jo_Des_Hai_Tera.mkv
    http://strongupload.com/6d1/Swades---Yun_Hi_Chala_Chala.mkv

  2. #2
    Senior Member www.desirulez.net
    Join Date
    Mar 2013
    Posts
    123

    Default

    mirror plz

 

 

Posting Permissions

  • You may not post new threads
  • You may not post replies
  • You may not post attachments
  • You may not edit your posts
  •