Results 1 to 1 of 1
  1. #1

    Default Badlapur (2015) DVDRip - All Music Videos - 720p - UnTouched Audio AC3 - DUS

    Follow us on Social Media





    Badlapur (2015) DVDRip - All Music Videos - 720p - UnTouched Audio AC3 - DUS





    Source : DVDR @ icon DDR

    Video
    ID : 1
    Format : AVC
    Format/Info : Advanced Video Codec
    Format profile : [email protected]
    Format settings, CABAC : Yes
    Format settings, ReFrames : 4 frames
    Codec ID : V_MPEG4/ISO/AVC
    Bit rate : 3 196 Kbps
    Width : 1 280 pixels
    Height : 544 pixels
    Display aspect ratio : 2.35:1
    Frame rate : 29.970 fps
    Color space : YUV
    Chroma subsampling : 4:2:0
    Bit depth : 8 bits
    Scan type : Progressive
    Bits/(Pixel*Frame) : 0.153
    Stream size : 38.9 MiB (86%)
    Default : Yes
    Forced : No

    Audio
    ID : 2
    Format : AC-3
    Format/Info : Audio Coding 3
    Mode extension : CM (complete main)
    Format settings, Endianness : Big
    Codec ID : A_AC3
    Bit rate mode : Constant
    Bit rate : 448 Kbps
    Channel(s) : 6 channels
    Channel positions : Front: L C R, Side: L R, LFE
    Sampling rate : 48.0 KHz
    Bit depth : 16 bits
    Compression mode : Lossy
    Delay relative to video : 27ms
    Stream size : 5.45 MiB (12%)
    Default : Yes
    Forced : No















    Buy Premium To Support Me & Get Resumable Support & Max Speed



    Code:
    http://strongupload.com/3ix/Badla_Badla_(Badlapur)_All_Music_Videos_720p_UnTouched_Audio_Ac3_-_DUS.mkv
    http://strongupload.com/3iy/Jee_Karda_(Badlapur)_All_Music_Videos_720p_UnTouched_Audio_Ac3_-_DUS.mkv
    http://strongupload.com/3iz/Jeena_Jeena_(Badlapur)_All_Music_Videos_720p_UnTouched_Audio_Ac3_-_DUS.mkv
    http://strongupload.com/5TS/Judaai_(Badlapur)_All_Music_Videos_720p_UnTouched_Audio_Ac3_-_DUS.mkv
    http://strongupload.com/5TT/Sone_Ka_Paani_-_1_(Badlapur)_All_Music_Videos_720p_UnTouched_Audio_Ac3_-_DUS.mkv
    http://strongupload.com/5TU/Sone_Ka_Paani_-_2_(Badlapur)_All_Music_Videos_720p_UnTouched_Audio_Ac3_-_DUS.mkv


 

 

Posting Permissions

  • You may not post new threads
  • You may not post replies
  • You may not post attachments
  • You may not edit your posts
  •