Results 1 to 1 of 1
  1. #1
    Hot Member www.desirulez.net
    Join Date
    Jan 2014
    Posts
    1,016

    Lightbulb WWE.Raw.2015.06.01.HDTV.x264-CHAMPiONS # Maximum Speed #

    Follow us on Social Media





    WWE.Raw.2015.06.01.HDTV.x264-CHAMPiONS

    Video
    Format : AVC
    Format/Info : Advanced Video Codec
    Format profile : [email protected]
    Codec ID : avc1
    Duration : 2h 15mn
    Bit rate : 1 455 Kbps
    Maximum bit rate : 7 341 Kbps
    Width : 720 pixels
    Height : 404 pixels
    Display aspect ratio : 16:9
    Original display aspect ratio : 16:9
    Frame rate mode : Constant
    Frame rate : 50.000 fps
    Color space : YUV
    Bit depth : 8 bits
    Scan type : Progressive
    Bits/(Pixel*Frame) : 0.100
    Stream size : 1.38 GiB (92%)

    Audio
    ID : 2
    Format : AAC
    Format profile : LC
    Codec ID : 40
    Duration : 2h 15mn
    Bit rate mode : Variable
    Bit rate : 118 Kbps
    Maximum bit rate : 146 Kbps
    Channel(s) : 2 channels
    Channel positions : Front: L R
    Sampling rate : 48.0 KHz
    Compression mode : Lossy
    Stream size : 114 MiB (7%)

    Code:
    http://topupload1.com/21Kx
    Best speed ever . just test it .

 

 

Posting Permissions

  • You may not post new threads
  • You may not post replies
  • You may not post attachments
  • You may not edit your posts
  •