Results 1 to 1 of 1
  1. #1

    Default WWE.Elimination.Chamber.No.Escape.2015.PPV.DEUTSCH.WEB-DL.x264-WU

    Follow us on Social Media





    .

    WWE.Elimination.Chamber.No.Escape.2015.PPV.DEUTSCH.WEB-DL.x264-WU



    Title: WWE Elimination Chamber 2015 (PPV)
    Genre: Wrestling
    Language/s: German
    Hoster: Uploaded.net, Share-online.biz, uploadable.ch
    Size: 2149,44 MB
    Parts: 11
    Password: NeXt

    Elimination Chamber (2015) (also known as No Escape (2015) in Germany) is an ongoing professional wrestling pay-per-view event produced by WWE. It will take place on May 31, 2015, at the American Bank Center in Corpus Christi, Texas.


    nfo:

    [spoiler]
    Code:
    WWE.Elimination.Chamber.No.Escape.2015.DEUTSCH.WEB-DL.x264-WU.mp4
    Format                                   : MPEG-4
    Format profile                           : Base Media
    Codec ID                                 : isom
    File size                                : 2.04 GiB
    Duration                                 : 2h 58mn
    Overall bit rate                         : 1 635 Kbps
    Encoded date                             : UTC 2015-06-01 15:31:54
    Tagged date                              : UTC 2015-06-01 15:31:54
    Writing application                      : Lavf56.33.101
    
    Video
    ID                                       : 1
    Format                                   : AVC
    Format/Info                              : Advanced Video Codec
    Format profile                           : [email protected]
    Format settings, CABAC                   : Yes
    Format settings, ReFrames                : 2 frames
    Codec ID                                 : avc1
    Codec ID/Info                            : Advanced Video Coding
    Duration                                 : 2h 58mn
    Bit rate                                 : 1 500 Kbps
    Width                                    : 896 pixels
    Height                                   : 512 pixels
    Display aspect ratio                     : 16:9
    Frame rate mode                          : Constant
    Frame rate                               : 29.970 fps
    Color space                              : YUV
    Chroma subsampling                       : 4:2:0
    Bit depth                                : 8 bits
    Scan type                                : Progressive
    Bits/(Pixel*Frame)                       : 0.109
    Stream size                              : 1.87 GiB (92%)
    Writing library                          : x264 core 146 r2538
    Audio
    ID                                       : 2
    Format                                   : AAC
    Format/Info                              : Advanced Audio Codec
    Format profile                           : LC
    Codec ID                                 : 40
    Duration                                 : 2h 58mn
    Bit rate mode                            : Constant
    Bit rate                                 : 128 Kbps
    Channel(s)                               : 2 channels
    Channel positions                        : Front: L R
    Sampling rate                            : 48.0 KHz
    Compression mode                         : Lossy
    Stream size                              : 163 MiB (8%)
    [/spoiler]

    Mirror: 1

    Uploaded.net
    Code:
    http://uploaded.net/file/bmakqxdl/No.Escape.2015.PPV.DEUTSCH.part10.rar
    http://uploaded.net/file/ttoh7n26/No.Escape.2015.PPV.DEUTSCH.part11.rar
    http://uploaded.net/file/2mag7p8f/No.Escape.2015.PPV.DEUTSCH.part08.rar
    http://uploaded.net/file/ljcshm9x/No.Escape.2015.PPV.DEUTSCH.part09.rar
    http://uploaded.net/file/06f16qt6/No.Escape.2015.PPV.DEUTSCH.part07.rar
    http://uploaded.net/file/ufw3dr24/No.Escape.2015.PPV.DEUTSCH.part06.rar
    http://uploaded.net/file/twcl0vew/No.Escape.2015.PPV.DEUTSCH.part04.rar
    http://uploaded.net/file/5hsesoyf/No.Escape.2015.PPV.DEUTSCH.part05.rar
    http://uploaded.net/file/5mr7r87f/No.Escape.2015.PPV.DEUTSCH.part01.rar
    http://uploaded.net/file/go165u3c/No.Escape.2015.PPV.DEUTSCH.part02.rar
    http://uploaded.net/file/9sz33b86/No.Escape.2015.PPV.DEUTSCH.part03.rar
    Mirror: 2

    Share-online.biz
    Code:
    http://www.share-online.biz/dl/YBO12APNYA4
    http://www.share-online.biz/dl/M4H12APNF1
    http://www.share-online.biz/dl/0SG12APNDN
    http://www.share-online.biz/dl/H5212APNQTW
    http://www.share-online.biz/dl/RHU02APNQH
    http://www.share-online.biz/dl/JSP02APNWNA
    http://www.share-online.biz/dl/88K02APN752
    http://www.share-online.biz/dl/3UJ02APNOQA
    http://www.share-online.biz/dl/2QE02APNY6
    http://www.share-online.biz/dl/PYB02APNCHO
    http://www.share-online.biz/dl/XQOZ1APN15A
    Mirror: 3

    uploadable.ch
    Code:
    http://www.uploadable.ch/file/YfgfVXyBkJtx/No.Escape.2015.PPV.DEUTSCH.part01.rar
    http://www.uploadable.ch/file/EQP4hRAbQvXm/No.Escape.2015.PPV.DEUTSCH.part02.rar
    http://www.uploadable.ch/file/Q5NBmyCZGxUu/No.Escape.2015.PPV.DEUTSCH.part06.rar
    http://www.uploadable.ch/file/c6kG4TSJ44EA/No.Escape.2015.PPV.DEUTSCH.part07.rar
    http://www.uploadable.ch/file/ctVWAys3J5pW/No.Escape.2015.PPV.DEUTSCH.part03.rar
    http://www.uploadable.ch/file/b8r9JV58gmTW/No.Escape.2015.PPV.DEUTSCH.part04.rar
    http://www.uploadable.ch/file/tEXxcSwVap54/No.Escape.2015.PPV.DEUTSCH.part05.rar
    http://www.uploadable.ch/file/mFykEhyrvjPG/No.Escape.2015.PPV.DEUTSCH.part08.rar
    http://www.uploadable.ch/file/fdE5SrAxpw6C/No.Escape.2015.PPV.DEUTSCH.part09.rar
    http://www.uploadable.ch/file/Rrc98nRFYM7Z/No.Escape.2015.PPV.DEUTSCH.part10.rar
    http://www.uploadable.ch/file/D4jRCjhvU3Ue/No.Escape.2015.PPV.DEUTSCH.part11.rar
    .

 

 

Posting Permissions

  • You may not post new threads
  • You may not post replies
  • You may not post attachments
  • You may not edit your posts
  •