Results 1 to 2 of 2
  1. #1

    Default WWE Elimination Chamber No Escape 2015 Kickoff DEUTSCH WEB-DL x264 - WU

    Follow us on Social Media





    .

    WWE.Elimination.Chamber.No.Escape.2015.Kickoff.DEUTSCH.WEB-DL.x264-WU



    Title: WWE Elimination Chamber 2015 (PPV)
    Genre: Wrestling
    Language/s: German
    Hoster: Uploaded.net, Share-online.biz, uploadable.ch, Zippyshare.com
    Size: 346,97 MB
    Parts: 2
    Password: NeXt

    Elimination Chamber (2015) (also known as No Escape (2015) in Germany) is an ongoing professional wrestling pay-per-view event produced by WWE. It will take place on May 31, 2015, at the American Bank Center in Corpus Christi, Texas.


    nfo:

    [spoiler]
    Code:
    Elimination.Chamber.No.Escape.2015.Kickoff.DEUTSCH-WU.mp4
    Format                                   : MPEG-4
    Format profile                           : Base Media
    Codec ID                                 : isom
    File size                                : 337 MiB
    Duration                                 : 58mn 43s
    Overall bit rate mode                    : Variable
    Overall bit rate                         : 802 Kbps
    Encoded date                             : UTC 2015-06-01 07:05:54
    Tagged date                              : UTC 2015-06-01 07:05:54
    
    Video
    ID                                       : 1
    Format                                   : AVC
    Format/Info                              : Advanced Video Codec
    Format profile                           : [email protected]
    Format settings, CABAC                   : Yes
    Format settings, ReFrames                : 5 frames
    Codec ID                                 : avc1
    Codec ID/Info                            : Advanced Video Coding
    Duration                                 : 58mn 43s
    Bit rate                                 : 729 Kbps
    Maximum bit rate                         : 2 825 Kbps
    Width                                    : 720 pixels
    Height                                   : 404 pixels
    Display aspect ratio                     : 16:9
    Frame rate mode                          : Constant
    Frame rate                               : 30.000 fps
    Color space                              : YUV
    Chroma subsampling                       : 4:2:0
    Bit depth                                : 8 bits
    Scan type                                : Progressive
    Bits/(Pixel*Frame)                       : 0.084
    Stream size                              : 306 MiB (91%)
    
    Audio German
    ID                                       : 2
    Format                                   : AAC
    Format/Info                              : Advanced Audio Codec
    Format profile                           : HE-AAC / LC
    Codec ID                                 : 40
    Duration                                 : 58mn 43s
    Bit rate mode                            : Variable
    Bit rate                                 : 69.7 Kbps
    Maximum bit rate                         : 92.9 Kbps
    Channel(s)                               : 2 channels
    Channel positions                        : Front: L R
    Sampling rate                            : 44.1 KHz / 22.05 KHz
    Compression mode                         : Lossy
    Stream size                              : 29.3 MiB (9%)
    [/spoiler]

    Mirror: 1

    Uploaded.net
    Code:
    http://ul.to/qj5aobh4
    http://ul.to/1y5obn6s
    Mirror: 2

    Share-online.biz
    Code:
    http://www.share-online.biz/dl/UM0ID9PNA4Q6
    http://www.share-online.biz/dl/5AWHD9PNUR1
    Mirror: 3

    uploadable.ch
    Code:
    http://www.uploadable.ch/file/HtzKVwpRgqW3/No.Escape.2015.Kickoff.DEUTSCH.part1.rar
    http://www.uploadable.ch/file/RRau7epTBCFK/No.Escape.2015.Kickoff.DEUTSCH.part2.rar
    Mirror: 4

    Zippyshare.com
    Code:
    http://www55.zippyshare.com/v/FW7oHVeU/file.html
    http://www55.zippyshare.com/v/7WmTkXSQ/file.html
    .

  2. #2
    Landed To DesiRulez www.desirulez.net
    Join Date
    Jan 2015
    Location
    Germany
    Posts
    11

    Default

    thanks!

    why kickoff show in german language only?

 

 

Posting Permissions

  • You may not post new threads
  • You may not post replies
  • You may not post attachments
  • You may not edit your posts
  •