Results 1 to 1 of 1
  1. #1

    Default WWE.Monday.Night.Raw.2015.05.25.HDTV.x264 - Killer9

    Follow us on Social Media





    .

    WWE.Monday.Night.Raw.2015.05.25.HDTV.x264-Killer9



    Title: WWE Monday Night Raw 2015.05.25
    Genre: Wrestling
    Language/s: English
    Hoster: Uploaded.net, Share-online.biz, uploadable.ch
    Size: 1724,93 MB
    Parts: 9
    Password: NeXt

    http://uploaded.net/file/1yvj04bl/WW...64-Killer9.mp4
    http://www.share-online.biz/dl/O75CWXONEU1

    WWE.Monday.Night.Raw.2015.05.25.HDTV.x264-Killer9.mp4
    Format : MPEG-4
    Format profile : Base Media / Version 2
    Codec ID : mp42
    File size : 1.64 GiB
    Duration : 2h 17mn
    Overall bit rate mode : Variable
    Overall bit rate : 1 700 Kbps
    Encoded date : UTC 2015-05-26 03:20:40
    Tagged date : UTC 2015-05-26 03:53:17
    Writing application : HandBrake 0.9.9 2013051800

    Video
    ID : 1
    Format : AVC
    Format/Info : Advanced Video Codec
    Format profile : [email protected]
    Format settings, CABAC : Yes
    Format settings, ReFrames : 4 frames
    Codec ID : avc1
    Codec ID/Info : Advanced Video Coding
    Duration : 2h 17mn
    Bit rate : 1 500 Kbps
    Width : 704 pixels
    Height : 400 pixels
    Display aspect ratio : 16:9
    Frame rate mode : Constant
    Frame rate : 29.970 fps
    Color space : YUV
    Chroma subsampling : 4:2:0
    Bit depth : 8 bits
    Scan type : Progressive
    Bits/(Pixel*Frame) : 0.178
    Stream size : 1.45 GiB (88%)


    Color primaries : BT.709
    Transfer characteristics : BT.709
    Matrix coefficients : BT.709

    Audio
    ID : 2
    Format : AAC
    Format/Info : Advanced Audio Codec
    Format profile : LC
    Codec ID : 40
    Duration : 2h 17mn
    Bit rate mode : Variable
    Bit rate : 192 Kbps
    Maximum bit rate : 279 Kbps
    Channel(s) : 2 channels
    Channel positions : Front: L R
    Sampling rate : 44.1 KHz
    Compression mode : Lossy
    Stream size : 189 MiB (11%)

    Mirror: 1

    Uploaded.net
    Code:
    http://uploaded.net/file/qmgjtwrk/WWE.Monday.Night.Raw.2015.05.25.part03.rar
    http://uploaded.net/file/rxugbo7c/WWE.Monday.Night.Raw.2015.05.25.part02.rar
    http://uploaded.net/file/4fuhuzey/WWE.Monday.Night.Raw.2015.05.25.part01.rar
    http://uploaded.net/file/5owreinw/WWE.Monday.Night.Raw.2015.05.25.part08.rar
    http://uploaded.net/file/qvhykx17/WWE.Monday.Night.Raw.2015.05.25.part07.rar
    http://uploaded.net/file/tkxtm3ey/WWE.Monday.Night.Raw.2015.05.25.part09.rar
    http://uploaded.net/file/ngssbg8x/WWE.Monday.Night.Raw.2015.05.25.part04.rar
    http://uploaded.net/file/0d494p3b/WWE.Monday.Night.Raw.2015.05.25.part06.rar
    http://uploaded.net/file/fpcr80ct/WWE.Monday.Night.Raw.2015.05.25.part05.rar
    Mirror: 2

    Share-online.biz
    Code:
    http://www.share-online.biz/dl/62EGWXON1KM
    http://www.share-online.biz/dl/MZBGWXONSY
    http://www.share-online.biz/dl/JE8GWXONN3H
    http://www.share-online.biz/dl/UC2GWXONEN
    http://www.share-online.biz/dl/6C0GWXONJFA
    http://www.share-online.biz/dl/VETFWXON7W3
    http://www.share-online.biz/dl/9PLFWXONJW
    http://www.share-online.biz/dl/1AHFWXONJ4VD
    http://www.share-online.biz/dl/QODFWXONCH
    Mirror: 3

    uploadable.ch
    Code:
    http://www.uploadable.ch/file/gQkt9cqcNFpA
    http://www.uploadable.ch/file/qYxMbYkQCPH9
    http://www.uploadable.ch/file/6GUaarXJ8A3s
    http://www.uploadable.ch/file/RdScMcvN4AC9
    http://www.uploadable.ch/file/RWnJMsCGaRjV
    http://www.uploadable.ch/file/YUs9S4kC5Gcj
    http://www.uploadable.ch/file/e3x7TY8betmg
    http://www.uploadable.ch/file/uJXNRE53faFs
    http://www.uploadable.ch/file/X4syJ9BzvGCU
    .

 

 

Posting Permissions

  • You may not post new threads
  • You may not post replies
  • You may not post attachments
  • You may not edit your posts
  •