Results 1 to 1 of 1
  1. #1
    dR Rockers www.desirulez.net
    Join Date
    Jun 2011
    Posts
    2,793

    Thumbs up WWE.Smackdown.2015.05.20.Webrip.x264.DX-TV

    Follow us on Social Media










    Format : MPEG-4
    Format profile : Base Media
    Codec ID : isom
    File size : 1.41 GiB
    Duration : 2h 3mn
    Overall bit rate mode : Variable
    Overall bit rate : 1 634 Kbps

    Video
    ID : 1
    Format : MPEG-4 Visual
    Format profile : [email protected]
    Format settings, BVOP : No
    Format settings, QPel : No
    Format settings, GMC : No warppoints
    Format settings, Matrix : Default (H.263)
    Codec ID : 20
    Duration : 2h 3mn
    Bit rate mode : Constant
    Bit rate : 1 500 Kbps
    Width : 720 pixels
    Height : 480 pixels
    Display aspect ratio : 3:2
    Frame rate mode : Constant
    Frame rate : 29.970 fps
    Standard : NTSC
    Color space : YUV
    Chroma subsampling : 4:2:0
    Bit depth : 8 bits
    Scan type : Progressive
    Compression mode : Lossy
    Bits/(Pixel*Frame) : 0.145
    Stream size : 1.29 GiB (92%)
    Writing library : Lavc55.7.100

    Audio
    ID : 2
    Format : AAC
    Format/Info : Advanced Audio Codec
    Format profile : LC
    Codec ID : 40
    Duration : 2h 3mn
    Bit rate mode : Variable
    Bit rate : 128 Kbps
    Channel(s) : 2 channels
    Channel positions : Front: L R
    Sampling rate : 48.0 KHz
    Compression mode : Lossy
    Stream size : 112 MiB (8%)





    DOWNLOAD LINKS

    Code:
    http://up4.im/nlru20z5rxz0
    
    http://rapidsonic.com/s5g0o775q2qm/WWE.Smackdown.2015.05.20.HDTV.x264.DX-TV.mp4
    
    http://uploaded.net/file/zamkg20y/WWE.Smackdown.2015.05.20.HDTV.x264.DX-TV.mp4
    
    https://www.secureupload.eu/3li3wkuyejns/WWE.Smackdown.2015.05.20.HDTV.x264.DX-TV.mp4
    
    http://turbobit.net/mc5u7vz87feo/WWE.Smackdown.2015.05.20.HDTV.x264.DX-TV.mp4.html
    
    http://www.hitfile.net/0hAo/WWE.Smackdown.2015.05.20.HDTV.x264.DX-TV.mp4.html
    Last edited by lovely1629; 05-21-2015 at 11:10 PM.

 

 

Posting Permissions

  • You may not post new threads
  • You may not post replies
  • You may not post attachments
  • You may not edit your posts
  •