Results 1 to 1 of 1
  1. #1

    Default London Dreams (2009) 2CD+1CD+500MB Mkv Rip DVD XviD AC3

    Follow us on Social Media







    London Dreams (2009) - 2CD - DVDRip - XviD - AC3 - 6Channel Audio



    Description :

    General
    Complete name : London Dreams 2009 DVDRip XviD Ac3 DUS.avi
    Format : AVI
    Format/Info : Audio Video Interleave
    Format profile : OpenDML
    File size : 1.45 GiB
    Duration : 2h 32mn
    Overall bit rate : 1 361 Kbps

    Video
    Format : MPEG-4 Visual
    Format profile : Streaming [email protected]
    Format settings, BVOP : Yes
    Format settings, QPel : No
    Format settings, GMC : No warppoints
    Format settings, Matrix : Default (H.263)
    Codec ID : XVID
    Codec ID/Hint : XviD
    Duration : 2h 32mn
    Bit rate : 1 228 Kbps
    Width : 720 pixels
    Height : 304 pixels
    Display aspect ratio : 2.35
    Frame rate : 23.976 fps
    Resolution : 24 bits
    Colorimetry : 4:2:0
    Scan type : Progressive
    Bits/(Pixel*Frame) : 0.234
    Stream size : 1.31 GiB (90%)

    Audio
    Format : AC-3
    Format/Info : Audio Coding 3
    Codec ID : 2000
    Duration : 2h 32mn
    Bit rate mode : Constant
    Bit rate : 128 Kbps
    Channel(s) : 6 channels
    Channel positions : Front: L C R, Surround: L R, LFE
    Sampling rate : 48.0 KHz
    Stream size : 140 MiB (9%)
    Alignment : Aligned on interleaves
    Interleave, duration : 64 ms (1.53 video frames)
    Interleave, preload duration : 192 ms
    Title : Desi Unit Share



    Screens :











    Links :

    Code:
    http://rapidshare.com/files/320923303/London.Dreams.DVDRip.2CD.XviD.AC3.By.TwistedDevil.avi.001
    http://rapidshare.com/files/320851819/London.Dreams.DVDRip.2CD.XviD.AC3.By.TwistedDevil.avi.002
    http://rapidshare.com/files/320922317/London.Dreams.DVDRip.2CD.XviD.AC3.By.TwistedDevil.avi.003
    http://rapidshare.com/files/320925617/London.Dreams.DVDRip.2CD.XviD.AC3.By.TwistedDevil.avi.004
    http://rapidshare.com/files/320925082/London.Dreams.DVDRip.2CD.XviD.AC3.By.TwistedDevil.avi.005
    http://rapidshare.com/files/320924994/London.Dreams.DVDRip.2CD.XviD.AC3.By.TwistedDevil.avi.006
    http://rapidshare.com/files/320930401/London.Dreams.DVDRip.2CD.XviD.AC3.By.TwistedDevil.avi.007
    http://rapidshare.com/files/320844944/London.Dreams.DVDRip.2CD.XviD.AC3.By.TwistedDevil.avi.008






    London Dreams (2009) - 1CD - DVDRip - XviD - SuB - [Dus]

    http://i37.tinypic.com/x1ioh2.jpg[/img]

    Screens :

    [img]http://i45.tinypic.com/16bc4t1.png
    [img]http://i47.tinypic.com/w6v9eo.png
    [img]http://i46.tinypic.com/2iqbfjo.png
    [img]http://i45.tinypic.com/29mo9i0.png
    [img]http://i49.tinypic.com/2crn90g.png



    Code:
    http://rapidshare.com/files/320851825/London.Dreams.2009.1CD.DVDRip.XviD.By.TwistedDevil.avi.001
    http://rapidshare.com/files/320853719/London.Dreams.2009.1CD.DVDRip.XviD.By.TwistedDevil.avi.002
    http://rapidshare.com/files/320852333/London.Dreams.2009.1CD.DVDRip.XviD.By.TwistedDevil.avi.003
    http://rapidshare.com/files/320923943/London.Dreams.2009.1CD.DVDRip.XviD.By.TwistedDevil.avi.004





    London Dreams (2009) DVDRip - x264 - 704x304 - 500MB




    Plot Outline:

    | The story revolves around two childhood friends Arjun and Munnu who find a way to get from a small village in India to Wembley as Rock stars, having overcome their personalities |

    RELEASE NOTES:

    Code:

    [TITLE].........................[ London Dreams
    [DIRECTOR]......................[ Vipul Amrutlal Shah
    [RELEASE DATE]..................[ 30 October 2009 (USA)
    [FORMAT]:.......................[ Matroska (MKV)
    [GENRE]:........................[ Romance | Drama | Music
    [NO OF CDs].....................[ 1
    [FILE SIZE]:....................[ 500MB
    [RESOLUTION]:...................[ 704x304
    [LANGUAGE ]:....................[ Hindi
    [SUBTITLES]:....................[ Yes | English | Separate SRT File
    [ORIGINAL RUNTIME]:.............[ 02:32:51
    [RELEASE RUNTIME]:..............[ 02:32:51
    [SOURCE]:.......................[ London Dreams (2009) DVDRip



    Screens :








    Links :

    Code:
    http://rapidshare.com/files/320918936/LDreams.2009.DVDRip.500MB.By.TwistedDevil.mkv.001
    http://rapidshare.com/files/320922493/LDreams.2009.DVDRip.500MB.By.TwistedDevil.mkv.002
    http://rapidshare.com/files/320920060/LDreams.2009.DVDRip.500MB.By.TwistedDevil.mkv.003
    http://rapidshare.com/files/320925054/LDreams.2009.DVDRip.500MB.By.TwistedDevil.mkv.004
    http://rapidshare.com/files/320922563/LDreams.2009.DVDRip.500MB.By.TwistedDevil.mkv.005

 

 

Posting Permissions

  • You may not post new threads
  • You may not post replies
  • You may not post attachments
  • You may not edit your posts
  •