Results 1 to 1 of 1
  1. #1

    Default Floyd Mayweather vs Manny Pacquiao PPV German DL 720p HDTV x264 - Footballars

    Follow us on Social Media





    .

    Boxing.02.05.2015.Floyd.Mayweather.Jr.vs.Manny.Pacquiao.PPV.720p.HDTV.x264-WDTeam



    Title: Floyd Mayweather vs Manny Pacquiao (2015) (PPV)
    Genre: Sport
    Language/s: English, German
    Hoster: Uploaded.net, Share-online.biz
    Size: 4575,57 MB
    Parts: 23
    Password: NeXt

    Format : Matroska
    Video
    Bit rate : 6 000 Kbps
    Width : 1 280 pixels
    Height : 720 pixels
    Display aspect ratio : 16:9
    Frame rate mode : Constant
    Frame rate : 50.000 fps

    Audio #1
    Format : AC-3
    Bit rate : 192 Kbps
    Channel(s) : 2 channels
    Language : German

    Audio #2
    Format : AC-3
    Bit rate : 192 Kbps
    Channel(s) : 2 channels
    Language : English

    nfo:

    [spoiler]
    Code:
    Floyd.Mayweather.vs.Manny.Pacquiao.PPV.German.DL.HDTV.720p.x264.Footballars.mkv
    Format                                   : Matroska
    Format version                           : Version 4 / Version 2
    File size                                : 4.34 GiB
    Duration                                 : 1h 37mn
    Overall bit rate                         : 6 378 Kbps
    Encoded date                             : UTC 2015-05-03 12:13:05
    Writing application                      : mkvmerge v7.8.0 ('River Man') 64bit built on Mar 27 2015 16:31:37
    Writing library                          : libebml v1.3.1 + libmatroska v1.4.2
    _STATISTICS_WRITING_APP                  : mkvmerge v7.8.0 ('River Man') 64bit built on Mar 27 2015 16:31:37
    _STATISTICS_WRITING_DATE_UTC             : 2015-05-03 12:13:05
    _STATISTICS_TAGS                         : BPS DURATION NUMBER_OF_FRAMES NUMBER_OF_BYTES
    DURATION                                 : 01:37:22.621000000
    NUMBER_OF_FRAMES                         : 182557
    NUMBER_OF_BYTES                          : 140203776
    
    Video
    ID                                       : 1
    Format                                   : AVC
    Format/Info                              : Advanced Video Codec
    Format profile                           : [email protected]
    Format settings, CABAC                   : Yes
    Format settings, ReFrames                : 4 frames
    Codec ID                                 : V_MPEG4/ISO/AVC
    Duration                                 : 1h 37mn
    Bit rate                                 : 6 000 Kbps
    Width                                    : 1 280 pixels
    Height                                   : 720 pixels
    Display aspect ratio                     : 16:9
    Frame rate mode                          : Constant
    Frame rate                               : 50.000 fps
    Color space                              : YUV
    Chroma subsampling                       : 4:2:0
    Bit depth                                : 8 bits
    Scan type                                : Progressive
    Bits/(Pixel*Frame)                       : 0.130
    Stream size                              : 3.99 GiB (92%)
    Writing library                          : x264 core 142 r2479 dd79a61
    Encoding settings                        : cabac=1 / ref=1 / deblock=1:0:0 / analyse=0x3:0x113 / me=hex / subme=2 / psy=1 / psy_rd=1.00:0.00 / mixed_ref=0 / me_range=16 / chroma_me=1 / trellis=0 / 8x8dct=1 / cqm=0 / deadzone=21,11 / fast_pskip=1 / chroma_qp_offset=0 / threads=12 / lookahead_threads=4 / sliced_threads=0 / nr=0 / decimate=1 / interlaced=0 / bluray_compat=0 / constrained_intra=0 / bframes=3 / b_pyramid=2 / b_adapt=1 / b_bias=0 / direct=1 / weightb=1 / open_gop=0 / weightp=1 / keyint=250 / keyint_min=25 / scenecut=40 / intra_refresh=0 / rc_lookahead=10 / rc=abr / mbtree=1 / bitrate=6000 / ratetol=1.0 / qcomp=0.60 / qpmin=0 / qpmax=69 / qpstep=4 / ip_ratio=1.40 / aq=1:1.00
    Default                                  : Yes
    Forced                                   : No
    Color primaries                          : BT.709
    Transfer characteristics                 : BT.709
    Matrix coefficients                      : BT.709
    
    Audio #1
    ID                                       : 2
    Format                                   : AC-3
    Format/Info                              : Audio Coding 3
    Mode extension                           : CM (complete main)
    Format settings, Endianness              : Big
    Codec ID                                 : A_AC3
    Duration                                 : 1h 37mn
    Bit rate mode                            : Constant
    Bit rate                                 : 192 Kbps
    Channel(s)                               : 2 channels
    Channel positions                        : Front: L R
    Sampling rate                            : 48.0 KHz
    Bit depth                                : 16 bits
    Compression mode                         : Lossy
    Delay relative to video                  : 17ms
    Stream size                              : 134 MiB (3%)
    Language                                 : German
    Default                                  : Yes
    Forced                                   : No
    
    Audio #2
    ID                                       : 3
    Format                                   : AC-3
    Format/Info                              : Audio Coding 3
    Mode extension                           : CM (complete main)
    Format settings, Endianness              : Big
    Codec ID                                 : A_AC3
    Duration                                 : 1h 37mn
    Bit rate mode                            : Constant
    Bit rate                                 : 192 Kbps
    Channel(s)                               : 2 channels
    Channel positions                        : Front: L R
    Sampling rate                            : 48.0 KHz
    Bit depth                                : 16 bits
    Compression mode                         : Lossy
    Delay relative to video                  : 17ms
    Stream size                              : 134 MiB (3%)
    Language                                 : English
    [/spoiler]

    Mirror: 1

    Uploaded.net
    Code:
    http://uploaded.net/file/6qfgr23u/Floyd.Pacquiao-PPV.German.part22.rar
    http://uploaded.net/file/73vo2ks1/Floyd.Pacquiao-PPV.German.part23.rar
    http://uploaded.net/file/640zwvx6/Floyd.Pacquiao-PPV.German.part21.rar
    http://uploaded.net/file/1h4z15zl/Floyd.Pacquiao-PPV.German.part20.rar
    http://uploaded.net/file/4xj3zem7/Floyd.Pacquiao-PPV.German.part19.rar
    http://uploaded.net/file/vtlsrd17/Floyd.Pacquiao-PPV.German.part18.rar
    http://uploaded.net/file/ru01jy01/Floyd.Pacquiao-PPV.German.part17.rar
    http://uploaded.net/file/ttd6opii/Floyd.Pacquiao-PPV.German.part16.rar
    http://uploaded.net/file/r8nesi1b/Floyd.Pacquiao-PPV.German.part15.rar
    http://uploaded.net/file/rd6a28bn/Floyd.Pacquiao-PPV.German.part14.rar
    http://uploaded.net/file/s8uh3c9i/Floyd.Pacquiao-PPV.German.part13.rar
    http://uploaded.net/file/ng479mfh/Floyd.Pacquiao-PPV.German.part12.rar
    http://uploaded.net/file/khlj5uu5/Floyd.Pacquiao-PPV.German.part11.rar
    http://uploaded.net/file/yspw5dqu/Floyd.Pacquiao-PPV.German.part10.rar
    http://uploaded.net/file/w0960t9h/Floyd.Pacquiao-PPV.German.part09.rar
    http://uploaded.net/file/8qyg8g7b/Floyd.Pacquiao-PPV.German.part08.rar
    http://uploaded.net/file/rg4vq4ms/Floyd.Pacquiao-PPV.German.part07.rar
    http://uploaded.net/file/ajkrcb3f/Floyd.Pacquiao-PPV.German.part06.rar
    http://uploaded.net/file/lpov0kzf/Floyd.Pacquiao-PPV.German.part05.rar
    http://uploaded.net/file/8lgkb22u/Floyd.Pacquiao-PPV.German.part04.rar
    http://uploaded.net/file/bm631bcu/Floyd.Pacquiao-PPV.German.part01.rar
    http://uploaded.net/file/zfhirwsi/Floyd.Pacquiao-PPV.German.part03.rar
    http://uploaded.net/file/t7htrabl/Floyd.Pacquiao-PPV.German.part02.rar
    Mirror: 2

    Share-online.biz
    Code:
    http://www.share-online.biz/dl/CULX4SNN4A
    http://www.share-online.biz/dl/P5BX4SNNS3
    http://www.share-online.biz/dl/YL2X4SNNGMN
    http://www.share-online.biz/dl/RW0X4SNNL9Z
    http://www.share-online.biz/dl/UUWW4SNNTII
    http://www.share-online.biz/dl/RESW4SNN9V
    http://www.share-online.biz/dl/HUQW4SNNUTS
    http://www.share-online.biz/dl/QVIW4SNNXUC
    http://www.share-online.biz/dl/00FW4SNN3AZ
    http://www.share-online.biz/dl/T2DW4SNNB21
    http://www.share-online.biz/dl/FL6W4SNN2V
    http://www.share-online.biz/dl/QAZV4SNNI7
    http://www.share-online.biz/dl/AMWV4SNN8LT
    http://www.share-online.biz/dl/8AUV4SNNTXN
    http://www.share-online.biz/dl/QETV4SNNXO
    http://www.share-online.biz/dl/C4NV4SNN9AP
    http://www.share-online.biz/dl/W7FV4SNNWIJ
    http://www.share-online.biz/dl/69FV4SNNNQ
    http://www.share-online.biz/dl/SLAV4SNNCH52
    http://www.share-online.biz/dl/XI1V4SNNJLW
    http://www.share-online.biz/dl/OAMU4SNN45
    http://www.share-online.biz/dl/GXHU4SNNLCUP
    http://www.share-online.biz/dl/3Z8U4SNNH2R
    .

 

 

Posting Permissions

  • You may not post new threads
  • You may not post replies
  • You may not post attachments
  • You may not edit your posts
  •