Results 1 to 1 of 1
  1. #1
    Hot Member www.desirulez.net
    Join Date
    Sep 2011
    Posts
    2,158

    Default WWE.Wrestlemania.31.HDTV.x264-RKOFAN1990

    Follow us on Social Media





    WWE.Wrestlemania.31.HDTV.x264-RKOFAN1990



    iNFO
    Code:
    VIDEO
    
    Format : AVC 
    Format/Info : Advanced Video Codec 
    Format profile : [email protected] 
    Format settings, CABAC : Yes 
    Format settings, ReFrames : 3 frames 
    Codec ID : avc1 
    Codec ID/Info : Advanced Video Coding 
    Duration : 3h 59mn 
    Bit rate mode : Constant 
    Bit rate : 2 311 Kbps 
    Nominal bit rate : 1 450 Kbps 
    Width : 768 pixels 
    Height : 432 pixels 
    Display aspect ratio : 16:9 
    Frame rate mode : Variable 
    Frame rate : 23.909 fps 
    Original frame rate : 15.000 fps 
    Minimum frame rate : 0.040 fps 
    Maximum frame rate : 27.027 fps 
    Standard : NTSC 
    Color space : YUV 
    Chroma subsampling : 4:2:0 
    Bit depth : 8 bits 
    Scan type : Progressive 
    Bits/(Pixel*Frame) : 0.291 
    Stream size : 3.87 GiB (95%) 
    Language : English 
    Encoded date : UTC 2015-03-29 23:00:15 
    Tagged date : UTC 2015-03-29 23:00:15 
    Color range : Limited 
    
    AUDIO
    
    Format : AAC 
    Format/Info : Advanced Audio Codec 
    Format profile : LC 
    Codec ID : 40 
    Duration : 3h 59mn 
    Source duration : 3h 59mn 
    Bit rate mode : Variable 
    Bit rate : 23.2 Kbps 
    Channel(s) : 2 channels 
    Channel positions : Front: L R 
    Sampling rate : 48.0 KHz 
    Compression mode : Lossy 
    Stream size : 39.7 MiB (1%) 
    Source stream size : 210 MiB (5%) 
    Language : English
    DOWNLOAD

    Code:
    SINGLE LINK
    
    http://uploaded.net/file/3x0mgxfm/WWE.Wrestlemania.31.HDTV.x264-RKOFAN1990.mp4
    
    http://rapidgator.net/file/0df2ff752e10c8da9ccd7f022f6690cf/WWE.Wrestlemania.31.HDTV.x264-RKOFAN1990.mp4.html
    
    SPLIT LINKS
    
    http://uploaded.net/file/jibllpkz/WWE.Wrestlemania.31.HDTV.x264-RKOFAN1990.mp4.part1.rar
    http://uploaded.net/file/j9eovb29/WWE.Wrestlemania.31.HDTV.x264-RKOFAN1990.mp4.part2.rar
    http://uploaded.net/file/ikityy71/WWE.Wrestlemania.31.HDTV.x264-RKOFAN1990.mp4.part3.rar
    http://uploaded.net/file/0veh2qvm/WWE.Wrestlemania.31.HDTV.x264-RKOFAN1990.mp4.part4.rar
    http://uploaded.net/file/z2r8u1q7/WWE.Wrestlemania.31.HDTV.x264-RKOFAN1990.mp4.part5.rar
    
    http://rapidgator.net/file/86ba36c1cd3404cb5f7441daddd22a97/WWE.Wrestlemania.31.HDTV.x264-RKOFAN1990.mp4.part1.rar.html
    http://rapidgator.net/file/bd4f7cd37209d11435ed250f9a9c2304/WWE.Wrestlemania.31.HDTV.x264-RKOFAN1990.mp4.part2.rar.html
    http://rapidgator.net/file/66fa57ec9eb816521870905f96f76970/WWE.Wrestlemania.31.HDTV.x264-RKOFAN1990.mp4.part3.rar.html
    http://rapidgator.net/file/d452696f9538d711f4c9e4312a581324/WWE.Wrestlemania.31.HDTV.x264-RKOFAN1990.mp4.part4.rar.html
    http://rapidgator.net/file/9ca45deca33db1c8b477932b35989ab3/WWE.Wrestlemania.31.HDTV.x264-RKOFAN1990.mp4.part5.rar.html
    DONT FORGET TO SAY THANKS

 

 

Posting Permissions

  • You may not post new threads
  • You may not post replies
  • You may not post attachments
  • You may not edit your posts
  •